Filmbol Forum Film İndir BRRip XviD v Deadpool (Deadpool 1) - 2016 - TR - BRRip XviD | tt1431045
Mega linklerinin şikayet edilmemesi için global erişime kapatıp sadece yorum yapanlara açıyoruz. Bu linkleri gizleme işlemini mecburen yapıyoruz ve yorum yapmanızın siteye değil size faydası vardır. Teşekürler yazmayı çok görüp, Random/Spam mesajlar atarak Mega linklerini açmaya çalışan kullanıcılara önce süresiz ban, devam ederse IP ban atacağız.
Filmbol'da moderatör olmak ister misiniz? Bizimle iletişime geçmek için tıklayın!
Deadpool (Deadpool 1) - 2016 - TR - BRRip XviD | tt1431045
BroserBros
Deadpool (Deadpool 1) - 2016 - TR - BRRip XviD | tt1431045
5
1800
  • Derecelendirme: 0/5 - 0 oy
  • 1
  • 2
  • 3
  • 4
  • 5
Konuyu Okuyanlar:1 Ziyaretçi
Şuan Online!
Filmin Yayınlanma Tarihi: 2016 
WWW
Şuan Online!
BroserBros Kurucu Admin
*******
Admin



 Deadpool



Mizah anlayışlı olan bir adam, kanser olduğunu öğrenir. Sonrasında bir paralı asker şirketi ona özel güçler vereceğini, kanserden kurtulacağını ve hiç bir yan etkisi olmadığını söyleyince bizim Ryan Reynolds (Deadpool) teklifi kabul eder ve hızlı iyileşme yeteneği olan bir adama dönüştürülür. Ancak, bazı yan etkileri olacaktır ve hazırladıkları adam namluyu kendilerine çevirecektir.

Deadpool (2016) (Deadpool 1) | tt1431045 Filmi Imdb'den 915,000 kişi tarafından oylandı ve 8,0 puan aldı. Bu film için editör puanı %94 olarak belirlendi. İyi Seyirler!

Teknik Detaylar

Kod :
General
Unique ID                                : 317007939938699137145063143063135026261 (0xEE7D8227658A8F062687593D66757C55)
Complete name                            : /home/BroserBros/Desktop/4/Deadpool.2016.BRRip.XviD.TR.Filmbol.avi
Format                                   : Matroska
Format version                           : Version 4
File size                                : 1.03 GiB
Duration                                 : 1 h 48 min
Overall bit rate                         : 1 366 kb/s
Movie name                               : Deadpool - 2016 | Filmbol.org
Encoded date                             : UTC 2021-03-29 13:17:52
Writing application                      : mkvmerge v53.0.0 ('Fool's Gold') 64-bit
Writing library                          : libebml v1.4.1 + libmatroska v1.6.2
FileExtension_Invalid                    : mkv mk3d mka mks

Video
ID                                       : 1
Format                                   : MPEG-4 Visual
Format profile                           : [email protected]
Format settings, BVOP                    : No
Format settings, QPel                    : No
Format settings, GMC                     : No warppoints
Format settings, Matrix                  : Default (H.263)
Codec ID                                 : V_MS/VFW/FOURCC / FMP4
Duration                                 : 1 h 48 min
Bit rate                                 : 1 236 kb/s
Width                                    : 720 pixels
Height                                   : 304 pixels
Display aspect ratio                     : 2.35:1
Frame rate mode                          : Constant
Frame rate                               : 23.976 FPS
Color space                              : YUV
Chroma subsampling                       : 4:2:0
Bit depth                                : 8 bits
Scan type                                : Progressive
Compression mode                         : Lossy
Bits/(Pixel*Frame)                       : 0.236
Stream size                              : 956 MiB (90%)
Title                                    : Deadpool - 2016 | Filmbol.org
Writing library                          : Lavc56.41.100
Default                                  : Yes
Forced                                   : No

Audio
ID                                       : 2
Format                                   : MPEG Audio
Format version                           : Version 1
Format profile                           : Layer 3
Format settings                          : Joint stereo / MS Stereo
Codec ID                                 : A_MPEG/L3
Codec ID/Hint                            : MP3
Duration                                 : 1 h 48 min
Bit rate mode                            : Constant
Bit rate                                 : 128 kb/s
Channel(s)                               : 2 channels
Sampling rate                            : 48.0 kHz
Frame rate                               : 41.667 FPS (1152 SPF)
Compression mode                         : Lossy
Stream size                              : 99.0 MiB (9%)
Title                                    : Deadpool - 2016 | Filmbol.org
Default                                  : Yes
Forced                                   : No

Film Detayları


 Deadpool

 Deadpool

 Deadpool


Film Fragmanı


Film Detayları


Uptobox ile indir

1Fichier ile indir

1Fichier'den İndiremiyor musun? Tıklayın!


Mega linki şuan da gizli. Kullanıma açmak için konuya yorum yapın ve ardından sayfayı yenileyin.

Mega


Bunun için üzgünüz ancak, bu linke sadece premium üyeler erişebilir.

Filmbol Cloud





Şuan Offine!
Şuan Offine!
cemsav97 Süper Üye
***
Super Üye

  • Konular0
  • Mesajlar67
  • Rep puanı 2
Awesome
Şuan Offine!
Şuan Offine!
sectechno Premium Üye
****

  • Konular11
  • Mesajlar108
  • Rep puanı 20
Teşekkürler BroserBros.Yalnız format XviD (avi) olsaydı iyi olacaktı.Bazı video oynatıcılar formatı desteklemiyor.Ayrıca linkler silinmiş bilgin olsun.İyi çalışmalar.
Şuan Offine!
Şuan Offine!
Vakko Yeni Üye
*
Üye

  • Konular0
  • Mesajlar3
  • Rep puanı 0
Selamlar. Filmi Mega'dan indirmek istiyorum. Yorum yapıldıktan sonra Mega açılacak diyor, inşallah açılır

BRRIP'de Mega silinmiş bilginiz olsun
Şuan Online!
Şuan Online!
BroserBros Kurucu Admin
*******
Admin

30.03.2021 Yönetici Notu:

Kırık linkler kontrol edildi, kaldırıldı ve yenilendi. Tüm linkler tamamen çalışır durumda. @sectechno @Vakko
Şuan Offine!
Şuan Offine!
sectechno Premium Üye
****

  • Konular11
  • Mesajlar108
  • Rep puanı 20
Teşekkürler arkadaşım.İyi çalışmalar. Smile


Konu ile Alakalı Benzer Konular
Konular Yazar Yorumlar Okunma Son Yorum
Filmin Yayınlanma Tarihi: 2018
Han Solo: Bir Star Wars Hikâyesi (Solo: A Star Wars Story) - 2018 - TR - BRRip XviD | tt3778644 BroserBros 2 438 1 saat önce
Son Yorum: Furkan61
Filmin Yayınlanma Tarihi: 2015
Yıldız Savaşları 7: Güç Uyanıyor (Star Wars: Episode VII - The Force Awakens) - 2015 - TR - BRRip XviD | tt2488496 BroserBros 8 2,184 1 saat önce
Son Yorum: Furkan61
Filmin Yayınlanma Tarihi: 1983
Yıldız Savaşları 6: Jedi'ın Dönüşü (Star Wars: Episode VI - Return of the Jedi) - 1983 - TR - BRRip XviD | tt0086190 BroserBros 8 1,785 1 saat önce
Son Yorum: Furkan61
Filmin Yayınlanma Tarihi: 1980
Yıldız Savaşları 5: İmparator (Star Wars: Episode V - The Empire Strikes Back) - 1980 - TR - BRRip XviD | tt0080684 BroserBros 6 1,779 2 saat önce
Son Yorum: Furkan61
Filmin Yayınlanma Tarihi: 2011
Transformers: Ay'ın Karanlık Yüzü (Transformers: Dark of the Moon) - 2011 - TR - BRRip XviD | tt1399103 TheSteeL 2 14 8 saat önce
Son Yorum: TheSteeL

Hızlı Menü: