Filmbol Forum Film İndir UHD - ULTRA HD - 4K v Deadpool (Deadpool 1) - 2016 - TR+ORG - UHD (4K) - 10Bit-x265 | tt1431045
Bildirimi Kapat
Server kaynaklı problemden dolayı ciddi bir sorun yaşadık. Şuanda forum ve portal aktif halde ancak bazı problemler hala devam ediyor. Problem gördüğünüz yerleri bize bildirmeniz çok önemli. Teşekkürler.

Bildirimi Kapat
Merhaba , site giderlerini bir nebze olsun karşılamak adına link kısaltma servisleri kullanmaya başladık. İndirme linkleri sizi ouo.io adresinde yönlendirecek, 3 saniye geçtikten sonra Get Link butonuna tıklayarak linke ulaşacaksınız. Premium üyeler bu durumdan etkilenmeyecektir.


Premium Üyelik Al

Deadpool (Deadpool 1) - 2016 - TR+ORG - UHD (4K) - 10Bit-x265 | tt1431045
BroserBros
Deadpool (Deadpool 1) - 2016 - TR+ORG - UHD (4K) - 10Bit-x265 | tt1431045
4
150
  • Derecelendirme: 0/5 - 0 oy
  • 1
  • 2
  • 3
  • 4
  • 5
Konuyu Okuyanlar:1 Ziyaretçi
Şuan Online!
Filmin Yayınlanma Tarihi: 2016 
Şuan Online!
BroserBros Kurucu Admin
*******
Admin


 Deadpool



Mizah anlayışlı olan bir adam, kanser olduğunu öğrenir. Sonrasında bir paralı asker şirketi ona özel güçler vereceğini, kanserden kurtulacağını ve hiç bir yan etkisi olmadığını söyleyince bizim Ryan Reynolds (Deadpool) teklifi kabul eder ve hızlı iyileşme yeteneği olan bir adama dönüştürülür. Ancak, bazı yan etkileri olacaktır ve hazırladıkları adam namluyu kendilerine çevirecektir.

Deadpool (2016) (Deadpool 1) | tt1431045 Filmi Imdb'den 915,000 kişi tarafından oylandı ve 8,0 puan aldı. Bu film için editör puanı %94 olarak belirlendi. İyi Seyirler!

Teknik Detaylar

Kod :
General
Unique ID                                : 2269806379753233087780480659331887507 (0x1B526183F1D0CABF9A1AB7551263193)
Complete name                            : /home/BroserBros/Desktop/4/Deadpool.2016.2160p.4K.BluRay.x265.10Bit.HDR.TR.ENG.Filmbol.mkv
Format                                   : Matroska
Format version                           : Version 4
File size                                : 5.13 GiB
Duration                                 : 1 h 48 min
Overall bit rate                         : 6 757 kb/s
Movie name                               : Deadpool - 2016 | Filmbol.org
Encoded date                             : UTC 2021-03-29 13:14:16
Writing application                      : mkvmerge v53.0.0 ('Fool's Gold') 64-bit
Writing library                          : libebml v1.4.1 + libmatroska v1.6.2
Cover                                    : Yes
Attachments                              : cover.jpg

Video
ID                                       : 1
Format                                   : HEVC
Format/Info                              : High Efficiency Video Coding
Format profile                           : Main [email protected]@Main
Codec ID                                 : V_MPEGH/ISO/HEVC
Duration                                 : 1 h 48 min
Bit rate                                 : 5 932 kb/s
Width                                    : 3 840 pixels
Height                                   : 1 600 pixels
Display aspect ratio                     : 2.40:1
Frame rate mode                          : Constant
Frame rate                               : 23.976 (24000/1001) FPS
Color space                              : YUV
Chroma subsampling                       : 4:2:0
Bit depth                                : 10 bits
Bits/(Pixel*Frame)                       : 0.040
Stream size                              : 4.48 GiB (87%)
Title                                    : 4K - Filmbol.org
Writing library                          : x265 1.9+140-34a3d35c5f97:[Windows][GCC 5.3.0][64 bit] 10bit
Encoding settings                        : wpp / ctu=64 / min-cu-size=8 / max-tu-size=32 / tu-intra-depth=1 / tu-inter-depth=1 / me=1 / subme=2 / merange=57 / no-rect / no-amp / max-merge=2 / temporal-mvp / no-early-skip / rdpenalty=0 / no-tskip / no-tskip-fast / strong-intra-smoothing / no-lossless / no-cu-lossless / no-constrained-intra / no-fast-intra / open-gop / no-temporal-layers / interlace=0 / keyint=250 / min-keyint=23 / scenecut=40 / rc-lookahead=20 / lookahead-slices=8 / bframes=4 / bframe-bias=0 / b-adapt=2 / ref=3 / limit-refs=3 / no-limit-modes / weightp / no-weightb / aq-mode=1 / qg-size=32 / aq-strength=1.00 / cbqpoffs=0 / crqpoffs=0 / rd=3 / psy-rd=2.00 / rdoq-level=0 / psy-rdoq=0.00 / no-rd-refine / signhide / deblock=0:0 / sao / no-sao-non-deblock / b-pyramid / cutree / no-intra-refresh / rc=2 / pass / bitrate=5933 / qcomp=0.60 / qpmin=0 / qpmax=51 / qpstep=4 / cplxblur=20.0 / qblur=0.5 / ipratio=1.40 / pbratio=1.30
Default                                  : Yes
Forced                                   : No

Audio #1
ID                                       : 2
Format                                   : AAC LC
Format/Info                              : Advanced Audio Codec Low Complexity
Codec ID                                 : A_AAC-2
Duration                                 : 1 h 48 min
Bit rate                                 : 373 kb/s
Channel(s)                               : 8 channels
Channel layout                           : C L R Ls Rs Lw Rw LFE
Sampling rate                            : 48.0 kHz
Frame rate                               : 46.875 FPS (1024 SPF)
Compression mode                         : Lossy
Delay relative to video                  : 9 ms
Stream size                              : 289 MiB (5%)
Title                                    : Orjinal Dil - Filmbol.org
Language                                 : English
Default                                  : No
Forced                                   : No

Audio #2
ID                                       : 3
Format                                   : AC-3
Format/Info                              : Audio Coding 3
Commercial name                          : Dolby Digital
Codec ID                                 : A_AC3
Duration                                 : 1 h 48 min
Bit rate mode                            : Constant
Bit rate                                 : 448 kb/s
Channel(s)                               : 6 channels
Channel layout                           : L R C LFE Ls Rs
Sampling rate                            : 48.0 kHz
Frame rate                               : 31.250 FPS (1536 SPF)
Compression mode                         : Lossy
Stream size                              : 346 MiB (7%)
Title                                    : Türkçe - Filmbol.org
Language                                 : Turkish
Service kind                             : Complete Main
Default                                  : Yes
Forced                                   : No

Text #1
ID                                       : 4
Format                                   : UTF-8
Codec ID                                 : S_TEXT/UTF8
Codec ID/Info                            : UTF-8 Plain Text
Duration                                 : 1 h 47 min
Bit rate                                 : 61 b/s
Count of elements                        : 1126
Stream size                              : 48.7 KiB (0%)
Title                                    : Türkçe - Filmbol.org
Language                                 : Turkish
Default                                  : No
Forced                                   : No

Text #2
ID                                       : 5
Format                                   : UTF-8
Codec ID                                 : S_TEXT/UTF8
Codec ID/Info                            : UTF-8 Plain Text
Duration                                 : 1 h 47 min
Bit rate                                 : 58 b/s
Count of elements                        : 1411
Stream size                              : 46.1 KiB (0%)
Title                                    : Türkçe Alternatif - Filmbol.org
Language                                 : Turkish
Default                                  : No
Forced                                   : No

Text #3
ID                                       : 6
Format                                   : PGS
Muxing mode                              : zlib
Codec ID                                 : S_HDMV/PGS
Codec ID/Info                            : Picture based subtitle format used on BDs/HD-DVDs
Duration                                 : 1 h 47 min
Bit rate                                 : 36.8 kb/s
Count of elements                        : 2822
Stream size                              : 28.2 MiB (1%)
Title                                    : Türkçe FORCED - Filmbol.org
Default                                  : Yes
Forced                                   : No

Text #4
ID                                       : 7
Format                                   : VobSub
Muxing mode                              : zlib
Codec ID                                 : S_VOBSUB
Codec ID/Info                            : Picture based subtitle format used on DVDs
Duration                                 : 1 h 48 min
Bit rate                                 : 23.3 kb/s
Count of elements                        : 2421
Stream size                              : 18.0 MiB (0%)
Title                                    : Commentary 1
Language                                 : English
Default                                  : No
Forced                                   : No

Text #5
ID                                       : 8
Format                                   : VobSub
Muxing mode                              : zlib
Codec ID                                 : S_VOBSUB
Codec ID/Info                            : Picture based subtitle format used on DVDs
Duration                                 : 1 h 48 min
Bit rate                                 : 17.2 kb/s
Count of elements                        : 2249
Stream size                              : 13.3 MiB (0%)
Title                                    : Commentary 1
Language                                 : Spanish
Default                                  : No
Forced                                   : No

Film Detayları


 Deadpool

 Deadpool

 Deadpool


Film Fragmanı


Film İndir



Zip Şifresi: filmbol.org Aşağıdaki butona tıklayarak kopyalabilirsiniz.





Filmbol Cloud

Bunun için üzgünüz ancak, bu linke sadece premium üyeler erişebilir.




WWW
Şuan Offine!
Şuan Offine!
TheRzR Yeni Üye
*
Üye
  • Konular0
  • Mesajlar40
  • Rep puanı 0
Şuan Offine!
Şuan Offine!
cezayirli Yeni Üye
*
Üye
  • Konular0
  • Mesajlar36
  • Rep puanı 0
Teşekkürler...
Şuan Offine!
Şuan Offine!
erennn Yeni Üye
*
Üye
  • Konular0
  • Mesajlar38
  • Rep puanı 0
bakalımm
Şuan Offine!
Şuan Offine!
KerimCan05 Yeni Üye
*
Üye
  • Konular0
  • Mesajlar5
  • Rep puanı 0
Teşekkürler


Hızlı Menü: