Filmbol Forum Film İndir 720P v Deadpool (Deadpool 1) - 2016 - TR+ORG - 720P | tt1431045
Mega linklerinin şikayet edilmemesi için global erişime kapatıp sadece yorum yapanlara açıyoruz. Bu linkleri gizleme işlemini mecburen yapıyoruz ve yorum yapmanızın siteye değil size faydası vardır. Teşekürler yazmayı çok görüp, Random/Spam mesajlar atarak Mega linklerini açmaya çalışan kullanıcılara önce süresiz ban, devam ederse IP ban atacağız.
Filmbol'da moderatör olmak ister misiniz? Bizimle iletişime geçmek için tıklayın!
Deadpool (Deadpool 1) - 2016 - TR+ORG - 720P | tt1431045
BroserBros
Deadpool (Deadpool 1) - 2016 - TR+ORG - 720P | tt1431045
6
3767
  • Derecelendirme: 0/5 - 0 oy
  • 1
  • 2
  • 3
  • 4
  • 5
Konuyu Okuyanlar:1 Ziyaretçi
Şuan Online!
Filmin Yayınlanma Tarihi: 2016 
WWW
Şuan Online!
BroserBros Kurucu Admin
*******
Admin



 Deadpool



Mizah anlayışlı olan bir adam, kanser olduğunu öğrenir. Sonrasında bir paralı asker şirketi ona özel güçler vereceğini, kanserden kurtulacağını ve hiç bir yan etkisi olmadığını söyleyince bizim Ryan Reynolds (Deadpool) teklifi kabul eder ve hızlı iyileşme yeteneği olan bir adama dönüştürülür. Ancak, bazı yan etkileri olacaktır ve hazırladıkları adam namluyu kendilerine çevirecektir.

Deadpool (2016) (Deadpool 1) | tt1431045 Filmi Imdb'den 915,000 kişi tarafından oylandı ve 8,0 puan aldı. Bu film için editör puanı %94 olarak belirlendi. İyi Seyirler!

Teknik Detaylar

Kod :
General
Unique ID                                : 182013918583154449161018110774825988149 (0x88EE9B0938A69AB5C06A3339CAA03035)
Complete name                            : /home/BroserBros/Desktop/4/Deadpool.2016.720p.BluRay.x264.TR.ENG.Filmbol.mkv
Format                                   : Matroska
Format version                           : Version 4
File size                                : 1.12 GiB
Duration                                 : 1 h 48 min
Overall bit rate                         : 1 487 kb/s
Movie name                               : Deadpool - 2016 | Filmbol.org
Encoded date                             : UTC 2021-03-29 13:07:02
Writing application                      : mkvmerge v53.0.0 ('Fool's Gold') 64-bit
Writing library                          : libebml v1.4.1 + libmatroska v1.6.2

Video
ID                                       : 1
Format                                   : AVC
Format/Info                              : Advanced Video Codec
Format profile                           : [email protected]
Format settings                          : CABAC / 4 Ref Frames
Format settings, CABAC                   : Yes
Format settings, Reference frames        : 4 frames
Codec ID                                 : V_MPEG4/ISO/AVC
Duration                                 : 1 h 48 min
Bit rate                                 : 900 kb/s
Width                                    : 1 280 pixels
Height                                   : 534 pixels
Display aspect ratio                     : 2.40:1
Original display aspect ratio            : 2.40:1
Frame rate mode                          : Constant
Frame rate                               : 23.976 (24000/1001) FPS
Color space                              : YUV
Chroma subsampling                       : 4:2:0
Bit depth                                : 8 bits
Scan type                                : Progressive
Bits/(Pixel*Frame)                       : 0.055
Stream size                              : 696 MiB (61%)
Title                                    : 720P - Filmbol.org
Writing library                          : x264 core 148
Encoding settings                        : cabac=1 / ref=4 / deblock=1:-1:-1 / analyse=0x3:0x133 / me=umh / subme=9 / psy=1 / psy_rd=1.00:0.15 / mixed_ref=1 / me_range=24 / chroma_me=1 / trellis=2 / 8x8dct=1 / cqm=0 / deadzone=21,11 / fast_pskip=0 / chroma_qp_offset=-3 / threads=12 / lookahead_threads=1 / sliced_threads=0 / nr=0 / decimate=1 / interlaced=0 / bluray_compat=0 / constrained_intra=0 / bframes=3 / b_pyramid=2 / b_adapt=2 / b_bias=0 / direct=3 / weightb=1 / open_gop=0 / weightp=2 / keyint=250 / keyint_min=23 / scenecut=40 / intra_refresh=0 / rc_lookahead=60 / rc=2pass / mbtree=1 / bitrate=900 / ratetol=1.0 / qcomp=0.60 / qpmin=0 / qpmax=69 / qpstep=4 / cplxblur=20.0 / qblur=0.5 / vbv_maxrate=31250 / vbv_bufsize=31250 / nal_hrd=none / filler=0 / ip_ratio=1.40 / aq=1:1.00
Default                                  : Yes
Forced                                   : No

Audio #1
ID                                       : 2
Format                                   : AC-3
Format/Info                              : Audio Coding 3
Commercial name                          : Dolby Digital
Codec ID                                 : A_AC3
Duration                                 : 1 h 48 min
Bit rate mode                            : Constant
Bit rate                                 : 448 kb/s
Channel(s)                               : 6 channels
Channel layout                           : L R C LFE Ls Rs
Sampling rate                            : 48.0 kHz
Frame rate                               : 31.250 FPS (1536 SPF)
Compression mode                         : Lossy
Delay relative to video                  : -43 ms
Stream size                              : 346 MiB (30%)
Title                                    : Türkçe - Filmbol.org
Language                                 : Turkish
Service kind                             : Complete Main
Default                                  : Yes
Forced                                   : No

Audio #2
ID                                       : 3
Format                                   : AAC LC
Format/Info                              : Advanced Audio Codec Low Complexity
Codec ID                                 : A_AAC-2
Duration                                 : 1 h 48 min
Bit rate                                 : 126 kb/s
Channel(s)                               : 2 channels
Channel layout                           : L R
Sampling rate                            : 48.0 kHz
Frame rate                               : 46.875 FPS (1024 SPF)
Compression mode                         : Lossy
Delay relative to video                  : -43 ms
Stream size                              : 97.3 MiB (8%)
Title                                    : Orjinal Dil - Filmbol.org
Default                                  : No
Forced                                   : No

Text #1
ID                                       : 4
Format                                   : UTF-8
Codec ID                                 : S_TEXT/UTF8
Codec ID/Info                            : UTF-8 Plain Text
Duration                                 : 1 h 47 min
Bit rate                                 : 61 b/s
Count of elements                        : 1126
Stream size                              : 48.7 KiB (0%)
Title                                    : Türkçe - Filmbol.org
Language                                 : Turkish
Default                                  : No
Forced                                   : No

Text #2
ID                                       : 5
Format                                   : PGS
Muxing mode                              : zlib
Codec ID                                 : S_HDMV/PGS
Codec ID/Info                            : Picture based subtitle format used on BDs/HD-DVDs
Duration                                 : 1 h 47 min
Bit rate                                 : 36.8 kb/s
Count of elements                        : 2822
Stream size                              : 28.2 MiB (2%)
Title                                    : Türkçe FORCED - Filmbol.org
Default                                  : Yes
Forced                                   : No

Film Detayları


 Deadpool

 Deadpool

 Deadpool


Film Fragmanı


Film Detayları

Uptobox ile indir

1Fichier ile indir

1Fichier'den İndiremiyor musun? Tıklayın!


Mega linki şuan da gizli. Kullanıma açmak için konuya yorum yapın ve ardından sayfayı yenileyin.

Mega


Bunun için üzgünüz ancak, bu linke sadece premium üyeler erişebilir.

Filmbol Cloud





Şuan Offine!
Şuan Offine!
Ahmet34 Süper Üye
***
Super Üye

  • Konular0
  • Mesajlar32
  • Rep puanı 0
efsane
Şuan Offine!
Şuan Offine!
Aqwed Yeni Üye
*
Üye

  • Konular0
  • Mesajlar5
  • Rep puanı 0
Güzel
Şuan Offine!
Şuan Offine!
Koçeren Uzman Üye
**
Uzman Üye

  • Konular0
  • Mesajlar11
  • Rep puanı 0
güzel
Şuan Offine!
Şuan Offine!
uvenix Süper Üye
***
Super Üye

  • Konular0
  • Mesajlar28
  • Rep puanı 0
güzel
Şuan Offine!
Şuan Offine!
Vakko Yeni Üye
*
Üye

  • Konular0
  • Mesajlar3
  • Rep puanı 0
Filmi Mega'da indirmek için tekrar yazıyorum inşallah 720p'de Mega dosyası vardır???
Şuan Online!
Şuan Online!
BroserBros Kurucu Admin
*******
Admin

30.03.2021 Yönetici Notu:

Kırık linkler kontrol edildi, kaldırıldı ve yenilendi. Tüm linkler tamamen çalışır durumda.


Konu ile Alakalı Benzer Konular
Konular Yazar Yorumlar Okunma Son Yorum
Filmin Yayınlanma Tarihi: 2017
Örümcek-Adam: Eve Dönüş (Spider-Man: Homecoming) - 2017 - TR+ORG - 720P | tt2250912 BroserBros 11 1,415 32 dakika önce
Son Yorum: denizyesilova00
Filmin Yayınlanma Tarihi: 2015
Karınca Adam (Ant-Man) - 2015 - TR+ORG - 720P | tt0478970 BroserBros 4 1,929 37 dakika önce
Son Yorum: denizyesilova00
Filmin Yayınlanma Tarihi: 2016
Kaptan Amerika: Kahramanların Savaşı (Captain America: Civil War) - 2016 - TR+ORG - 720P | tt3498820 BroserBros 5 5,327 38 dakika önce
Son Yorum: denizyesilova00
Filmin Yayınlanma Tarihi: 2015
Yenilmezler: Ultron Çağı (Avengers: Age of Ultron) - 2015 - TR+ORG - 720P | tt2395427 BroserBros 8 5,989 2 saat önce
Son Yorum: denizyesilova00
Filmin Yayınlanma Tarihi: 2017
Galaksinin Koruyucuları 2 (Guardians of the Galaxy Vol. 2) - 2017 - TR+ORG - 720P | tt3896198 BroserBros 3 453 2 saat önce
Son Yorum: denizyesilova00

Hızlı Menü: