Filmbol Forum Film İndir FHD - FULL HD v Deadpool (Deadpool 1) - 2016 - TR+ORG - FHD - x264 | tt1431045
Mega linklerinin şikayet edilmemesi için global erişime kapatıp sadece yorum yapanlara açıyoruz. Bu linkleri gizleme işlemini mecburen yapıyoruz ve yorum yapmanızın siteye değil size faydası vardır. Teşekürler yazmayı çok görüp, Random/Spam mesajlar atarak Mega linklerini açmaya çalışan kullanıcılara önce süresiz ban, devam ederse IP ban atacağız.
Filmbol'da moderatör olmak ister misiniz? Bizimle iletişime geçmek için tıklayın!
Deadpool (Deadpool 1) - 2016 - TR+ORG - FHD - x264 | tt1431045
BroserBros
Deadpool (Deadpool 1) - 2016 - TR+ORG - FHD - x264 | tt1431045
0
29
  • Derecelendirme: 0/5 - 0 oy
  • 1
  • 2
  • 3
  • 4
  • 5
Konuyu Okuyanlar:1 Ziyaretçi
Şuan Online!
Filmin Yayınlanma Tarihi: 2016 
WWW
Şuan Online!
BroserBros Kurucu Admin
*******
Admin



 Deadpool



Mizah anlayışlı olan bir adam, kanser olduğunu öğrenir. Sonrasında bir paralı asker şirketi ona özel güçler vereceğini, kanserden kurtulacağını ve hiç bir yan etkisi olmadığını söyleyince bizim Ryan Reynolds (Deadpool) teklifi kabul eder ve hızlı iyileşme yeteneği olan bir adama dönüştürülür. Ancak, bazı yan etkileri olacaktır ve hazırladıkları adam namluyu kendilerine çevirecektir.

Deadpool (2016) (Deadpool 1) | tt1431045 Filmi Imdb'den 915,000 kişi tarafından oylandı ve 8,0 puan aldı. Bu film için editör puanı %94 olarak belirlendi. İyi Seyirler!

Teknik Detaylar

Kod :
General
Unique ID                                : 249205290940193217393901117447976505861 (0xBB7B317659E480EA62C6AFC9DAAFD205)
Complete name                            : /home/BroserBros/Desktop/4/Deadpool.2016.FHD.BluRay.x264.TR.ENG.Filmbol.mkv
Format                                   : Matroska
Format version                           : Version 4
File size                                : 5.36 GiB
Duration                                 : 1 h 48 min
Overall bit rate                         : 7 100 kb/s
Movie name                               : Deadpool - 2016 | Filmbol.org
Encoded date                             : UTC 2021-03-29 13:09:25
Writing application                      : mkvmerge v53.0.0 ('Fool's Gold') 64-bit
Writing library                          : libebml v1.4.1 + libmatroska v1.6.2

Video
ID                                       : 1
Format                                   : AVC
Format/Info                              : Advanced Video Codec
Format profile                           : [email protected]
Format settings                          : CABAC / 5 Ref Frames
Format settings, CABAC                   : Yes
Format settings, Reference frames        : 5 frames
Codec ID                                 : V_MPEG4/ISO/AVC
Duration                                 : 1 h 48 min
Bit rate                                 : 6 000 kb/s
Width                                    : 1 920 pixels
Height                                   : 802 pixels
Display aspect ratio                     : 2.40:1
Frame rate mode                          : Constant
Frame rate                               : 23.976 (24000/1001) FPS
Color space                              : YUV
Chroma subsampling                       : 4:2:0
Bit depth                                : 8 bits
Scan type                                : Progressive
Bits/(Pixel*Frame)                       : 0.163
Stream size                              : 4.53 GiB (84%)
Title                                    : FHD - Filmbol.org
Writing library                          : x264 core 148 r2744 b97ae06
Encoding settings                        : cabac=1 / ref=5 / deblock=1:-3:-3 / analyse=0x3:0x133 / me=umh / subme=9 / psy=1 / psy_rd=1.00:0.00 / mixed_ref=1 / me_range=16 / chroma_me=1 / trellis=1 / 8x8dct=1 / cqm=0 / deadzone=21,11 / fast_pskip=0 / chroma_qp_offset=-2 / threads=3 / lookahead_threads=1 / sliced_threads=0 / nr=0 / decimate=0 / interlaced=0 / bluray_compat=0 / constrained_intra=0 / bframes=3 / b_pyramid=2 / b_adapt=1 / b_bias=0 / direct=1 / weightb=1 / open_gop=0 / weightp=2 / keyint=240 / keyint_min=23 / scenecut=40 / intra_refresh=0 / rc_lookahead=40 / rc=2pass / mbtree=1 / bitrate=6000 / ratetol=1.0 / qcomp=0.60 / qpmin=0 / qpmax=69 / qpstep=4 / cplxblur=20.0 / qblur=0.5 / vbv_maxrate=40000 / vbv_bufsize=40000 / nal_hrd=none / filler=0 / ip_ratio=1.40 / aq=1:1.00
Language                                 : English
Default                                  : Yes
Forced                                   : No

Audio #1
ID                                       : 2
Format                                   : AC-3
Format/Info                              : Audio Coding 3
Commercial name                          : Dolby Digital
Codec ID                                 : A_AC3
Duration                                 : 1 h 48 min
Bit rate mode                            : Constant
Bit rate                                 : 448 kb/s
Channel(s)                               : 6 channels
Channel layout                           : L R C LFE Ls Rs
Sampling rate                            : 48.0 kHz
Frame rate                               : 31.250 FPS (1536 SPF)
Compression mode                         : Lossy
Stream size                              : 346 MiB (6%)
Title                                    : Türkçe - Filmbol.org
Language                                 : Turkish
Service kind                             : Complete Main
Default                                  : Yes
Forced                                   : No

Audio #2
ID                                       : 3
Format                                   : AC-3
Format/Info                              : Audio Coding 3
Commercial name                          : Dolby Digital
Codec ID                                 : A_AC3
Duration                                 : 1 h 48 min
Bit rate mode                            : Constant
Bit rate                                 : 640 kb/s
Channel(s)                               : 6 channels
Channel layout                           : L R C LFE Ls Rs
Sampling rate                            : 48.0 kHz
Frame rate                               : 31.250 FPS (1536 SPF)
Compression mode                         : Lossy
Stream size                              : 495 MiB (9%)
Title                                    : Orjinal Dil - Filmbol.org
Language                                 : English
Service kind                             : Complete Main
Default                                  : No
Forced                                   : No

Text #1
ID                                       : 4
Format                                   : UTF-8
Codec ID                                 : S_TEXT/UTF8
Codec ID/Info                            : UTF-8 Plain Text
Duration                                 : 1 h 47 min
Bit rate                                 : 61 b/s
Count of elements                        : 1126
Stream size                              : 48.7 KiB (0%)
Title                                    : Türkçe - Filmbol.org
Language                                 : Turkish
Default                                  : No
Forced                                   : No

Text #2
ID                                       : 5
Format                                   : PGS
Muxing mode                              : zlib
Codec ID                                 : S_HDMV/PGS
Codec ID/Info                            : Picture based subtitle format used on BDs/HD-DVDs
Duration                                 : 1 h 47 min
Bit rate                                 : 36.8 kb/s
Count of elements                        : 2822
Stream size                              : 28.2 MiB (1%)
Title                                    : Türkçe FORCED - Filmbol.org
Default                                  : Yes
Forced                                   : No

Film Detayları


 Deadpool

 Deadpool

 Deadpool


Film Fragmanı


Film Detayları

Bunun için üzgünüz ancak, bu linke sadece premium üyeler erişebilir.

Filmbol Cloud







Konu ile Alakalı Benzer Konular
Konular Yazar Yorumlar Okunma Son Yorum
Filmin Yayınlanma Tarihi: 2021
Yıldırım Gücü (Thunder Force) - 2021 - TR+ORG - FHD - x264 | tt10121392 TheSteeL 0 6 6 saat önce
Son Yorum: TheSteeL
Filmin Yayınlanma Tarihi: 2012
Gerçeğin Peşinde (Man on a Ledge) - 2012 - TR+ORG - FHD - x264 | tt1568338 BroserBros 0 14 10-04-2021, Saat: 20:00
Son Yorum: BroserBros
Filmin Yayınlanma Tarihi: 2006
X-Men: Son Direniş (X-Men: The Last Stand) - 2006 - TR+ORG - FHD - x264 | tt0376994 BroserBros 0 14 10-04-2021, Saat: 19:46
Son Yorum: BroserBros
Filmin Yayınlanma Tarihi: 2003
X-Men 2 (X2: X-Men United) - 2003 - TR+ORG - FHD - x264 | tt0290334 BroserBros 0 13 10-04-2021, Saat: 18:57
Son Yorum: BroserBros
Filmin Yayınlanma Tarihi: 2000
X-Men 1 (X-Men) - 2000 - TR+ORG - FHD - x264 | tt0120903 BroserBros 0 12 10-04-2021, Saat: 18:44
Son Yorum: BroserBros

Hızlı Menü: