Filmbol Forum Film İndir FHD - FULL HD v Georgetown - 2019 - TR+ORG - FHD - x264 | tt4669252
Bildirimi Kapat
Server kaynaklı problemden dolayı ciddi bir sorun yaşadık. Şuanda forum ve portal aktif halde ancak bazı problemler hala devam ediyor. Problem gördüğünüz yerleri bize bildirmeniz çok önemli. Teşekkürler.

Bildirimi Kapat
Merhaba , site giderlerini bir nebze olsun karşılamak adına link kısaltma servisleri kullanmaya başladık. İndirme linkleri sizi ouo.io adresinde yönlendirecek, 3 saniye geçtikten sonra Get Link butonuna tıklayarak linke ulaşacaksınız. Premium üyeler bu durumdan etkilenmeyecektir.


Premium Üyelik Al

Georgetown - 2019 - TR+ORG - FHD - x264 | tt4669252
BroserBros
Georgetown - 2019 - TR+ORG - FHD - x264 | tt4669252
0
13
  • Derecelendirme: 0/5 - 0 oy
  • 1
  • 2
  • 3
  • 4
  • 5
Konuyu Okuyanlar:1 Ziyaretçi
Şuan Online!
Filmin Yayınlanma Tarihi: 2019 
Şuan Online!
BroserBros Kurucu Admin
*******
Admin


 Georgetown



Ulrich Mott biraz sempatik, çekici ve kesinlikle bir kadının arayabileceği birçok özelliğe sahip birisidir. Ancak o diğer erkeklere göre çok ciddi manada farklı bir adam olarak dikkat çeker. Güzellik onun için problem değildir, önemsediği şey tamamen zenginliktir. Hedefinde zengin ve dul kadınlar yer alır ve sürekli bir kovalamaca ile devam eder.

Elsa Brecht ise tam Ulrich Mott'un istediği tarzda bir hanımefendidir. Zengin ve dul olan Elsa, Ulrich'e aşık olmaya başlar ve zamanla ona resmen tutulur. Evlilik kararı alan çift, kısa bir süre içinde evlenir ve beş parasız olan Ulrich şimdi gözde bir adam haline gelir. Onun bu zenginliğe ulaştıktan sonra Elsa'ya davranışları değişmeye başlar ve kısa süre sonra Ulrich'in hiç düzgün biri olmadığı anlaşılmaya başlar...

2019 yapımı olan Georgetown İndir filmi Christoph Waltz, Vanessa Redgrave, Annette Bening gibi isimleri kadrosunda bulundururken yönetmen koltuğuna ise aynı zamanda oyuncu olan Christoph Waltz oturuyor...

Georgetown (2019) | tt4669252 Filmi Imdb'den 1,500 kişi tarafından oylandı ve 6,0 puan aldı. Bu film için editör puanı %59 olarak belirlendi. İyi Seyirler!

Teknik Detaylar

Kod :
General
Unique ID                                : 144125846921259868540509136943242418840 (0x6C6DA0E116BBA2C92B973FC02C6E1A98)
Complete name                            : C:\Users\Administrator\Desktop\2\Georgetown.2019.FHD.BluRay.x264.TR.ENG.Filmbol.mkv
Format                                   : Matroska
Format version                           : Version 4
File size                                : 3.45 GiB
Duration                                 : 1 h 35 min
Overall bit rate                         : 5 175 kb/s
Movie name                               : Georgetown - 2019 | Filmbol.org
Encoded date                             : UTC 2021-09-19 07:16:43
Writing application                      : mkvmerge v61.0.0 ('So') 64-bit
Writing library                          : libebml v1.4.2 + libmatroska v1.6.4

Video
ID                                       : 1
Format                                   : AVC
Format/Info                              : Advanced Video Codec
Format profile                           : [email protected]
Format settings                          : CABAC / 5 Ref Frames
Format settings, CABAC                   : Yes
Format settings, Reference frames        : 5 frames
Format settings, GOP                     : N=1
Codec ID                                 : V_MPEG4/ISO/AVC
Duration                                 : 1 h 35 min
Bit rate                                 : 4 568 kb/s
Width                                    : 1 912 pixels
Height                                   : 796 pixels
Display aspect ratio                     : 2.40:1
Frame rate mode                          : Constant
Frame rate                               : 25.000 FPS
Color space                              : YUV
Chroma subsampling                       : 4:2:0
Bit depth                                : 8 bits
Scan type                                : Progressive
Bits/(Pixel*Frame)                       : 0.120
Stream size                              : 3.04 GiB (88%)
Title                                    : FHD - Filmbol.org
Language                                 : English
Default                                  : Yes
Forced                                   : No
Color range                              : Limited
Color primaries                          : BT.709
Transfer characteristics                 : BT.709
Matrix coefficients                      : BT.709

Audio #1
ID                                       : 2
Format                                   : AC-3
Format/Info                              : Audio Coding 3
Commercial name                          : Dolby Digital
Codec ID                                 : A_AC3
Duration                                 : 1 h 35 min
Bit rate mode                            : Constant
Bit rate                                 : 224 kb/s
Channel(s)                               : 2 channels
Channel layout                           : L R
Sampling rate                            : 48.0 kHz
Frame rate                               : 31.250 FPS (1536 SPF)
Compression mode                         : Lossy
Delay relative to video                  : -40 ms
Stream size                              : 153 MiB (4%)
Title                                    : Türkçe - Filmbol.org
Language                                 : Turkish
Service kind                             : Complete Main
Default                                  : Yes
Forced                                   : No

Audio #2
ID                                       : 3
Format                                   : AC-3
Format/Info                              : Audio Coding 3
Commercial name                          : Dolby Digital
Codec ID                                 : A_AC3
Duration                                 : 1 h 35 min
Bit rate mode                            : Constant
Bit rate                                 : 384 kb/s
Channel(s)                               : 6 channels
Channel layout                           : L R C LFE Ls Rs
Sampling rate                            : 48.0 kHz
Frame rate                               : 31.250 FPS (1536 SPF)
Compression mode                         : Lossy
Delay relative to video                  : -40 ms
Stream size                              : 262 MiB (7%)
Title                                    : Orijinal Dil - Filmbol.org
Language                                 : English
Service kind                             : Complete Main
Default                                  : Yes
Forced                                   : No

Text
ID                                       : 4
Format                                   : UTF-8
Codec ID                                 : S_TEXT/UTF8
Codec ID/Info                            : UTF-8 Plain Text
Duration                                 : 1 h 34 min
Bit rate                                 : 72 b/s
Count of elements                        : 1452
Stream size                              : 49.9 KiB (0%)
Title                                    : Türkçe - Filmbol.org
Language                                 : Turkish
Default                                  : No
Forced                                   : No

Film Detayları


 Georgetown

 Georgetown

 Georgetown


Film Fragmanı


Film İndir



Zip Şifresi: filmbol.org Aşağıdaki butona tıklayarak kopyalabilirsiniz.





Filmbol Cloud

Bunun için üzgünüz ancak, bu linke sadece premium üyeler erişebilir.




WWW


Hızlı Menü: