Filmbol Forum Film İndir 1080P v Georgetown - 2019 - TR+ORG - 1080P | tt4669252
Bildirimi Kapat
Server kaynaklı problemden dolayı ciddi bir sorun yaşadık. Şuanda forum ve portal aktif halde ancak bazı problemler hala devam ediyor. Problem gördüğünüz yerleri bize bildirmeniz çok önemli. Teşekkürler.

Bildirimi Kapat
Merhaba , site giderlerini bir nebze olsun karşılamak adına link kısaltma servisleri kullanmaya başladık. İndirme linkleri sizi ouo.io adresinde yönlendirecek, 3 saniye geçtikten sonra Get Link butonuna tıklayarak linke ulaşacaksınız. Premium üyeler bu durumdan etkilenmeyecektir.


Premium Üyelik Al

Georgetown - 2019 - TR+ORG - 1080P | tt4669252
BroserBros
Georgetown - 2019 - TR+ORG - 1080P | tt4669252
0
20
  • Derecelendirme: 0/5 - 0 oy
  • 1
  • 2
  • 3
  • 4
  • 5
Konuyu Okuyanlar:1 Ziyaretçi
Şuan Online!
Şuan Online!
BroserBros Kurucu Admin
*******
Admin


 Georgetown



Ulrich Mott biraz sempatik, çekici ve kesinlikle bir kadının arayabileceği birçok özelliğe sahip birisidir. Ancak o diğer erkeklere göre çok ciddi manada farklı bir adam olarak dikkat çeker. Güzellik onun için problem değildir, önemsediği şey tamamen zenginliktir. Hedefinde zengin ve dul kadınlar yer alır ve sürekli bir kovalamaca ile devam eder.

Elsa Brecht ise tam Ulrich Mott'un istediği tarzda bir hanımefendidir. Zengin ve dul olan Elsa, Ulrich'e aşık olmaya başlar ve zamanla ona resmen tutulur. Evlilik kararı alan çift, kısa bir süre içinde evlenir ve beş parasız olan Ulrich şimdi gözde bir adam haline gelir. Onun bu zenginliğe ulaştıktan sonra Elsa'ya davranışları değişmeye başlar ve kısa süre sonra Ulrich'in hiç düzgün biri olmadığı anlaşılmaya başlar...

2019 yapımı olan Georgetown İndir filmi Christoph Waltz, Vanessa Redgrave, Annette Bening gibi isimleri kadrosunda bulundururken yönetmen koltuğuna ise aynı zamanda oyuncu olan Christoph Waltz oturuyor...

Georgetown (2019) | tt4669252 Filmi Imdb'den 1,500 kişi tarafından oylandı ve 6,0 puan aldı. Bu film için editör puanı %59 olarak belirlendi. İyi Seyirler!

Teknik Detaylar

Kod :
General
Unique ID                                : 65964108566097069966415376502790828181 (0x31A039A6542A9828BB0AB737165C3095)
Complete name                            : C:\Users\Administrator\Desktop\2\Georgetown.2019.1080p.BluRay.x264.TR.ENG.Filmbol.mkv
Format                                   : Matroska
Format version                           : Version 4
File size                                : 1.73 GiB
Duration                                 : 1 h 35 min
Overall bit rate                         : 2 603 kb/s
Movie name                               : Georgetown - 2019 | Filmbol.org
Encoded date                             : UTC 2021-09-19 07:00:42
Writing application                      : mkvmerge v61.0.0 ('So') 64-bit
Writing library                          : libebml v1.4.2 + libmatroska v1.6.4

Video
ID                                       : 1
Format                                   : AVC
Format/Info                              : Advanced Video Codec
Format profile                           : [email protected]
Format settings                          : CABAC / 4 Ref Frames
Format settings, CABAC                   : Yes
Format settings, Reference frames        : 4 frames
Codec ID                                 : V_MPEG4/ISO/AVC
Duration                                 : 1 h 35 min
Bit rate                                 : 2 250 kb/s
Width                                    : 1 904 pixels
Height                                   : 784 pixels
Display aspect ratio                     : 2.40:1
Frame rate mode                          : Constant
Frame rate                               : 25.000 FPS
Color space                              : YUV
Chroma subsampling                       : 4:2:0
Bit depth                                : 8 bits
Scan type                                : Progressive
Bits/(Pixel*Frame)                       : 0.060
Stream size                              : 1.50 GiB (86%)
Title                                    : 1080P - Filmbol.org
Writing library                          : x264 core 158
Encoding settings                        : cabac=1 / ref=4 / deblock=1:-1:-1 / analyse=0x3:0x133 / me=umh / subme=9 / psy=1 / psy_rd=1.00:0.15 / mixed_ref=1 / me_range=24 / chroma_me=1 / trellis=2 / 8x8dct=1 / cqm=0 / deadzone=21,11 / fast_pskip=0 / chroma_qp_offset=-3 / threads=18 / lookahead_threads=1 / sliced_threads=0 / nr=0 / decimate=1 / interlaced=0 / bluray_compat=0 / constrained_intra=0 / bframes=3 / b_pyramid=2 / b_adapt=2 / b_bias=0 / direct=3 / weightb=1 / open_gop=0 / weightp=2 / keyint=250 / keyint_min=23 / scenecut=40 / intra_refresh=0 / rc_lookahead=60 / rc=2pass / mbtree=1 / bitrate=2250 / ratetol=1.0 / qcomp=0.60 / qpmin=0 / qpmax=69 / qpstep=4 / cplxblur=20.0 / qblur=0.5 / vbv_maxrate=31250 / vbv_bufsize=31250 / nal_hrd=none / filler=0 / ip_ratio=1.40 / aq=1:1.00
Default                                  : Yes
Forced                                   : No

Audio #1
ID                                       : 2
Format                                   : AC-3
Format/Info                              : Audio Coding 3
Commercial name                          : Dolby Digital
Codec ID                                 : A_AC3
Duration                                 : 1 h 35 min
Bit rate mode                            : Constant
Bit rate                                 : 224 kb/s
Channel(s)                               : 2 channels
Channel layout                           : L R
Sampling rate                            : 48.0 kHz
Frame rate                               : 31.250 FPS (1536 SPF)
Compression mode                         : Lossy
Stream size                              : 153 MiB (9%)
Title                                    : Türkçe - Filmbol.org
Language                                 : Turkish
Service kind                             : Complete Main
Default                                  : Yes
Forced                                   : No

Audio #2
ID                                       : 3
Format                                   : AAC LC
Format/Info                              : Advanced Audio Codec Low Complexity
Codec ID                                 : A_AAC-2
Duration                                 : 1 h 35 min
Bit rate                                 : 128 kb/s
Channel(s)                               : 2 channels
Channel layout                           : L R
Sampling rate                            : 48.0 kHz
Frame rate                               : 46.875 FPS (1024 SPF)
Compression mode                         : Lossy
Stream size                              : 87.5 MiB (5%)
Title                                    : Orijinal Dil - Filmbol.org
Language                                 : English
Default                                  : No
Forced                                   : No

Text
ID                                       : 4
Format                                   : UTF-8
Codec ID                                 : S_TEXT/UTF8
Codec ID/Info                            : UTF-8 Plain Text
Duration                                 : 1 h 34 min
Bit rate                                 : 72 b/s
Count of elements                        : 1452
Stream size                              : 49.9 KiB (0%)
Title                                    : Türkçe - Filmbol.org
Language                                 : Turkish
Default                                  : No
Forced                                   : No

Film Detayları


 Georgetown

 Georgetown

 Georgetown


Film Fragmanı


Film İndir



Zip Şifresi: filmbol.org Aşağıdaki butona tıklayarak kopyalabilirsiniz.


Uptobox ile indir

1Fichier ile indir

1Fichier'den İndiremiyor musun? Tıklayın!






Filmbol Cloud

Bunun için üzgünüz ancak, bu linke sadece premium üyeler erişebilir.




WWW


Hızlı Menü: