Filmbol Forum Film İndir BRRip XviD v Georgetown - 2019 - TR - BRRip XviD | tt4669252
Bildirimi Kapat
Server kaynaklı problemden dolayı ciddi bir sorun yaşadık. Şuanda forum ve portal aktif halde ancak bazı problemler hala devam ediyor. Problem gördüğünüz yerleri bize bildirmeniz çok önemli. Teşekkürler.

Bildirimi Kapat
Merhaba , site giderlerini bir nebze olsun karşılamak adına link kısaltma servisleri kullanmaya başladık. İndirme linkleri sizi ouo.io adresinde yönlendirecek, 3 saniye geçtikten sonra Get Link butonuna tıklayarak linke ulaşacaksınız. Premium üyeler bu durumdan etkilenmeyecektir.


Premium Üyelik Al

Georgetown - 2019 - TR - BRRip XviD | tt4669252
BroserBros
Georgetown - 2019 - TR - BRRip XviD | tt4669252
0
15
  • Derecelendirme: 0/5 - 0 oy
  • 1
  • 2
  • 3
  • 4
  • 5
Konuyu Okuyanlar:1 Ziyaretçi
Şuan Online!
Filmin Yayınlanma Tarihi: 2019 
Şuan Online!
BroserBros Kurucu Admin
*******
Admin


 Georgetown



Ulrich Mott biraz sempatik, çekici ve kesinlikle bir kadının arayabileceği birçok özelliğe sahip birisidir. Ancak o diğer erkeklere göre çok ciddi manada farklı bir adam olarak dikkat çeker. Güzellik onun için problem değildir, önemsediği şey tamamen zenginliktir. Hedefinde zengin ve dul kadınlar yer alır ve sürekli bir kovalamaca ile devam eder.

Elsa Brecht ise tam Ulrich Mott'un istediği tarzda bir hanımefendidir. Zengin ve dul olan Elsa, Ulrich'e aşık olmaya başlar ve zamanla ona resmen tutulur. Evlilik kararı alan çift, kısa bir süre içinde evlenir ve beş parasız olan Ulrich şimdi gözde bir adam haline gelir. Onun bu zenginliğe ulaştıktan sonra Elsa'ya davranışları değişmeye başlar ve kısa süre sonra Ulrich'in hiç düzgün biri olmadığı anlaşılmaya başlar...

2019 yapımı olan Georgetown İndir filmi Christoph Waltz, Vanessa Redgrave, Annette Bening gibi isimleri kadrosunda bulundururken yönetmen koltuğuna ise aynı zamanda oyuncu olan Christoph Waltz oturuyor...

Georgetown (2019) | tt4669252 Filmi Imdb'den 1,500 kişi tarafından oylandı ve 6,0 puan aldı. Bu film için editör puanı %59 olarak belirlendi. İyi Seyirler!

Teknik Detaylar

Kod :
General
Complete name                            : C:\Users\Administrator\Desktop\2\Georgetown.2019.BRRip.XviD.TR.Filmbol.avi
Format                                   : AVI
Format/Info                              : Audio Video Interleave
File size                                : 1.12 GiB
Duration                                 : 1 h 35 min
Overall bit rate                         : 1 688 kb/s
Movie name                               : filmbol.org
Writing application                      : VirtualDubMod 1.5.10.2 (build 2540/release)
Writing library                          : VirtualDubMod build 2540/release

Video
ID                                       : 0
Format                                   : MPEG-4 Visual
Format profile                           : Advanced [email protected]
Format settings                          : BVOP2 / Custom Matrix
Format settings, BVOP                    : 2
Format settings, QPel                    : No
Format settings, GMC                     : No warppoints
Format settings, Matrix                  : Custom
Codec ID                                 : XVID
Codec ID/Hint                            : XviD
Duration                                 : 1 h 35 min
Bit rate                                 : 1 550 kb/s
Width                                    : 720 pixels
Height                                   : 304 pixels
Display aspect ratio                     : 2.35:1
Frame rate                               : 25.000 FPS
Color space                              : YUV
Chroma subsampling                       : 4:2:0
Bit depth                                : 8 bits
Scan type                                : Progressive
Compression mode                         : Lossy
Bits/(Pixel*Frame)                       : 0.283
Stream size                              : 1.03 GiB (92%)
Writing library                          : XviD 67

Audio
ID                                       : 1
Format                                   : MPEG Audio
Format version                           : Version 1
Format profile                           : Layer 3
Format settings                          : Joint stereo / MS Stereo
Codec ID                                 : 55
Codec ID/Hint                            : MP3
Duration                                 : 1 h 35 min
Bit rate mode                            : Constant
Bit rate                                 : 128 kb/s
Channel(s)                               : 2 channels
Sampling rate                            : 48.0 kHz
Compression mode                         : Lossy
Stream size                              : 87.2 MiB (8%)
Alignment                                : Aligned on interleaves
Interleave, duration                     : 40  ms (1.00 video frame)
Interleave, preload duration             : 504  ms
Writing library                          : LAME3.98.4
Language                                 : Belirsiz

Film Detayları


 Georgetown

 Georgetown

 Georgetown


Film Fragmanı


Film İndir



Zip Şifresi: filmbol.org Aşağıdaki butona tıklayarak kopyalabilirsiniz.



Uptobox ile indir

1Fichier ile indir

1Fichier'den İndiremiyor musun? Tıklayın!






Filmbol Cloud

Bunun için üzgünüz ancak, bu linke sadece premium üyeler erişebilir.




WWW


Hızlı Menü: