Filmbol Forum Film İndir FHD - FULL HD v Mortal Kombat - 2021 - TR+ORG - FHD - x264 | tt0293429
Bildirimi Kapat
Merhaba , site giderlerini bir nebze olsun karşılamak adına link kısaltma servisleri kullanmaya başladık. İndirme linkleri sizi ouo.io adresinde yönlendirecek, 3 saniye geçtikten sonra Get Link butonuna tıklayarak linke ulaşacaksınız. Premium üyeler bu durumdan etkilenmeyecektir.


Premium Üyelik Al

Mortal Kombat - 2021 - TR+ORG - FHD - x264 | tt0293429
TheSteeL
Mortal Kombat - 2021 - TR+ORG - FHD - x264 | tt0293429
5
162
  • Derecelendirme: 0/5 - 0 oy
  • 1
  • 2
  • 3
  • 4
  • 5
Konuyu Okuyanlar:2 Ziyaretçi
Şuan Online!
Filmin Yayınlanma Tarihi: 2021 
Şuan Online!
TheSteeL Chief Executive Officer
******
CEO


 Mortal Kombat



Cole, küçüklükten gelen dövüş sanatlarına hayranlığı ile her zaman kendini bu konuda geliştirmeye çalışmıştır. Bu işte yeteneğe de sahip olan Cole, önüne gelen herkesi yenmeye başlar. Bu durumda ülke genelinin ve hatta imparatorun bile dikkatini çekmeyi başaran Cole, artık rahat uyku uyuyamaz olur. İmparator onun bu başarısına öfkelenir ve karşısına devlet tarafından özel olarak eğitilmiş birini çıkarmaya karar verir. Bunu öğrenen Cole, imparatora karşı gelemeyeceğini, dövüşü kazansa bile hem kendinin hemde ailesinin bu durumdan ciddi zararlar göreceğini anlar. Bu yüzden hem iyi bir eğitim almak hemde dövüşü şayet yenerse , imparatorluğun olası saldırısına karşı kendine sağlam bir ekip kurmak üzere yola çıkar...

Mortal Kombat (2021) | tt0293429 Filmi Imdb'den 119000 kişi tarafından oylandı ve 6,2 puan aldı. Bu film için editör puanı %73 olarak belirlendi. İyi Seyirler!

Teknik Detaylar

Kod :
General
Unique ID                                : 28981808299538439817284644058343473930 (0x15CDB1787B5AA0C61E59F4E09D81030A)
Complete name                            : /home/TheSteel/Desktop/2/Mortal.Kombat.2021.FHD.Bluray.x264.TR.ENG.Filmbol.mkv
Format                                   : Matroska
Format version                           : Version 4
File size                                : 8.45 GiB
Duration                                 : 1 h 50 min
Overall bit rate                         : 11.0 Mb/s
Movie name                               : Mortal Kombat - 2021 | Filmbol.org
Encoded date                             : UTC 2021-07-05 16:52:57
Writing application                      : mkvmerge v31.0.0 ('Dolores In A Shoestand') 64-bit
Writing library                          : libebml v1.3.6 + libmatroska v1.4.9

Video
ID                                       : 1
Format                                   : AVC
Format/Info                              : Advanced Video Codec
Format profile                           : [email protected]
Format settings                          : CABAC / 5 Ref Frames
Format settings, CABAC                   : Yes
Format settings, Reference frames        : 5 frames
Codec ID                                 : V_MPEG4/ISO/AVC
Duration                                 : 1 h 50 min
Bit rate                                 : 10.4 Mb/s
Width                                    : 1 920 pixels
Height                                   : 804 pixels
Display aspect ratio                     : 2.40:1
Frame rate mode                          : Constant
Frame rate                               : 23.976 (24000/1001) FPS
Color space                              : YUV
Chroma subsampling                       : 4:2:0
Bit depth                                : 8 bits
Scan type                                : Progressive
Bits/(Pixel*Frame)                       : 0.280
Stream size                              : 7.96 GiB (94%)
Title                                    : Mortal Kombat - 2021 | Filmbol.org
Writing library                          : x264 core 146 -from seleZen
Encoding settings                        : cabac=1 / ref=5 / deblock=1:-2:-2 / analyse=0x3:0x133 / me=umh / subme=10 / psy=1 / psy_rd=1.05:0.05 / mixed_ref=1 / me_range=32 / chroma_me=1 / trellis=2 / 8x8dct=1 / cqm=0 / deadzone=21,11 / fast_pskip=0 / chroma_qp_offset=-3 / threads=36 / lookahead_threads=6 / sliced_threads=0 / nr=0 / decimate=0 / interlaced=0 / bluray_compat=0 / constrained_intra=0 / bframes=8 / b_pyramid=2 / b_adapt=2 / b_bias=0 / direct=3 / weightb=1 / open_gop=0 / weightp=2 / keyint=240 / keyint_min=23 / scenecut=40 / intra_refresh=0 / rc_lookahead=50 / rc=2pass / mbtree=0 / bitrate=10354 / ratetol=1.0 / qcomp=0.60 / qpmin=0 / qpmax=51 / qpstep=4 / cplxblur=20.0 / qblur=0.5 / vbv_maxrate=50000 / vbv_bufsize=62500 / nal_hrd=none / filler=0 / ip_ratio=1.40 / pb_ratio=1.30 / aq=3:0.80
Language                                 : English
Default                                  : Yes
Forced                                   : No

Audio #1
ID                                       : 2
Format                                   : AC-3
Format/Info                              : Audio Coding 3
Commercial name                          : Dolby Digital
Codec ID                                 : A_AC3
Duration                                 : 1 h 50 min
Bit rate mode                            : Constant
Bit rate                                 : 192 kb/s
Channel(s)                               : 2 channels
Channel layout                           : L R
Sampling rate                            : 48.0 kHz
Frame rate                               : 31.250 FPS (1536 SPF)
Compression mode                         : Lossy
Stream size                              : 151 MiB (2%)
Title                                    : Mortal Kombat - 2021 | Filmbol.org
Language                                 : Turkish
Service kind                             : Complete Main
Default                                  : Yes
Forced                                   : No

Audio #2
ID                                       : 3
Format                                   : AC-3
Format/Info                              : Audio Coding 3
Commercial name                          : Dolby Digital
Codec ID                                 : A_AC3
Duration                                 : 1 h 50 min
Bit rate mode                            : Constant
Bit rate                                 : 448 kb/s
Channel(s)                               : 6 channels
Channel layout                           : L R C LFE Ls Rs
Sampling rate                            : 48.0 kHz
Frame rate                               : 31.250 FPS (1536 SPF)
Compression mode                         : Lossy
Stream size                              : 353 MiB (4%)
Title                                    : Mortal Kombat - 2021 | Filmbol.org
Language                                 : English
Service kind                             : Complete Main
Default                                  : No
Forced                                   : No

Text
ID                                       : 4
Format                                   : UTF-8
Codec ID                                 : S_TEXT/UTF8
Codec ID/Info                            : UTF-8 Plain Text
Duration                                 : 1 h 37 min
Bit rate                                 : 36 b/s
Count of elements                        : 804
Stream size                              : 26.3 KiB (0%)
Title                                    : Mortal Kombat - 2021 | Filmbol.org
Language                                 : Turkish
Default                                  : No
Forced                                   : No

Film Detayları


 Mortal Kombat

 Mortal Kombat

 Mortal Kombat


Film Fragmanı


Film Detayları



Zip Şifresi: filmbol.org Aşağıdaki butona tıklayarak kopyalabilirsiniz.





Filmbol Cloud

Bunun için üzgünüz ancak, bu linke sadece premium üyeler erişebilir.




WWW
Şuan Online!
Şuan Online!
Yusuf 00 Yeni Üye
*
Üye
  • Konular0
  • Mesajlar33
  • Rep puanı 0
Teşekkürler...
Şuan Online!
Şuan Online!
TheSteeL Chief Executive Officer
******
CEO
(01-08-2021, Saat: 13:56)Yusuf 00 Adlı Kullanıcıdan Alıntı: Teşekkürler...
İyi Seyirler
Şuan Offine!
Şuan Offine!
ahmettepe Yeni Üye
*
Üye
  • Konular0
  • Mesajlar68
  • Rep puanı 1
teşekkürler
Şuan Offine!
Şuan Offine!
extremeways Yeni Üye
*
Üye
  • Konular0
  • Mesajlar22
  • Rep puanı 0
Teşekkürler

Teşekkürler film
Şuan Offine!
Şuan Offine!
by4444 Yeni Üye
*
Üye
  • Konular0
  • Mesajlar3
  • Rep puanı 0
tşklerrrr


Hızlı Menü: