Filmbol Forum Film İndir 1080P v Mortal Kombat - 2021 - TR+ORG - 1080P | tt0293429
Bildirimi Kapat
Merhaba , site giderlerini bir nebze olsun karşılamak adına link kısaltma servisleri kullanmaya başladık. İndirme linkleri sizi ouo.io adresinde yönlendirecek, 3 saniye geçtikten sonra Get Link butonuna tıklayarak linke ulaşacaksınız. Premium üyeler bu durumdan etkilenmeyecektir.


Premium Üyelik Al

Mortal Kombat - 2021 - TR+ORG - 1080P | tt0293429
TheSteeL
Mortal Kombat - 2021 - TR+ORG - 1080P | tt0293429
5
235
  • Derecelendirme: 0/5 - 0 oy
  • 1
  • 2
  • 3
  • 4
  • 5
Konuyu Okuyanlar:4 Ziyaretçi
Şuan Online!
Filmin Yayınlanma Tarihi: 2021 
Şuan Online!
TheSteeL Chief Executive Officer
******
CEO


 Mortal Kombat



Cole, küçüklükten gelen dövüş sanatlarına hayranlığı ile her zaman kendini bu konuda geliştirmeye çalışmıştır. Bu işte yeteneğe de sahip olan Cole, önüne gelen herkesi yenmeye başlar. Bu durumda ülke genelinin ve hatta imparatorun bile dikkatini çekmeyi başaran Cole, artık rahat uyku uyuyamaz olur. İmparator onun bu başarısına öfkelenir ve karşısına devlet tarafından özel olarak eğitilmiş birini çıkarmaya karar verir. Bunu öğrenen Cole, imparatora karşı gelemeyeceğini, dövüşü kazansa bile hem kendinin hemde ailesinin bu durumdan ciddi zararlar göreceğini anlar. Bu yüzden hem iyi bir eğitim almak hemde dövüşü şayet yenerse , imparatorluğun olası saldırısına karşı kendine sağlam bir ekip kurmak üzere yola çıkar...

Mortal Kombat (2021) | tt0293429 Filmi Imdb'den 119000 kişi tarafından oylandı ve 6,2 puan aldı. Bu film için editör puanı %73 olarak belirlendi. İyi Seyirler!

Teknik Detaylar

Kod :
General
Unique ID                                : 257499422170553889625919271539893103562 (0xC1B895B447117107AE7992CC71386BCA)
Complete name                            : /home/TheSteel/Desktop/2/Mortal.Kombat.2021.1080p.Bluray.x264.TR.ENG.Filmbol.mkv
Format                                  : Matroska
Format version                          : Version 4
File size                                : 2.03 GiB
Duration                                : 1 h 50 min
Overall bit rate                        : 2 635 kb/s
Movie name                              : Mortal Kombat - 2021 | Filmbol.org
Encoded date                            : UTC 2021-07-05 16:52:05
Writing application                      : mkvmerge v31.0.0 ('Dolores In A Shoestand') 64-bit
Writing library                          : libebml v1.3.6 + libmatroska v1.4.9

Video
ID                                      : 1
Format                                  : AVC
Format/Info                              : Advanced Video Codec
Format profile                          : [email protected]
Format settings                          : CABAC / 4 Ref Frames
Format settings, CABAC                  : Yes
Format settings, Reference frames        : 4 frames
Codec ID                                : V_MPEG4/ISO/AVC
Duration                                : 1 h 50 min
Bit rate                                : 2 250 kb/s
Width                                    : 1 920 pixels
Height                                  : 800 pixels
Display aspect ratio                    : 2.40:1
Frame rate mode                          : Constant
Frame rate                              : 23.976 (24000/1001) FPS
Color space                              : YUV
Chroma subsampling                      : 4:2:0
Bit depth                                : 8 bits
Scan type                                : Progressive
Bits/(Pixel*Frame)                      : 0.061
Stream size                              : 1.73 GiB (85%)
Title                                    : Mortal Kombat - 2021 | Filmbol.org
Writing library                          : x264 core 161
Encoding settings                        : cabac=1 / ref=4 / deblock=1:-1:-1 / analyse=0x3:0x133 / me=umh / subme=9 / psy=1 / psy_rd=1.00:0.15 / mixed_ref=1 / me_range=24 / chroma_me=1 / trellis=2 / 8x8dct=1 / cqm=0 / deadzone=21,11 / fast_pskip=0 / chroma_qp_offset=-3 / threads=24 / lookahead_threads=2 / sliced_threads=0 / nr=0 / decimate=1 / interlaced=0 / bluray_compat=0 / constrained_intra=0 / bframes=3 / b_pyramid=2 / b_adapt=2 / b_bias=0 / direct=3 / weightb=1 / open_gop=0 / weightp=2 / keyint=250 / keyint_min=23 / scenecut=40 / intra_refresh=0 / rc_lookahead=60 / rc=2pass / mbtree=1 / bitrate=2250 / ratetol=1.0 / qcomp=0.60 / qpmin=0 / qpmax=69 / qpstep=4 / cplxblur=20.0 / qblur=0.5 / vbv_maxrate=31250 / vbv_bufsize=31250 / nal_hrd=none / filler=0 / ip_ratio=1.40 / aq=1:1.00
Default                                  : Yes
Forced                                  : No
Color range                              : Limited
Matrix coefficients                      : BT.709

Audio #1
ID                                      : 2
Format                                  : AC-3
Format/Info                              : Audio Coding 3
Commercial name                          : Dolby Digital
Codec ID                                : A_AC3
Duration                                : 1 h 50 min
Bit rate mode                            : Constant
Bit rate                                : 192 kb/s
Channel(s)                              : 2 channels
Channel layout                          : L R
Sampling rate                            : 48.0 kHz
Frame rate                              : 31.250 FPS (1536 SPF)
Compression mode                        : Lossy
Stream size                              : 151 MiB (7%)
Title                                    : Mortal Kombat - 2021 | Filmbol.org
Language                                : Turkish
Service kind                            : Complete Main
Default                                  : Yes
Forced                                  : No

Audio #2
ID                                      : 3
Format                                  : AC-3
Format/Info                              : Audio Coding 3
Commercial name                          : Dolby Digital
Codec ID                                : A_AC3
Duration                                : 1 h 50 min
Bit rate mode                            : Constant
Bit rate                                : 192 kb/s
Channel(s)                              : 2 channels
Channel layout                          : L R
Sampling rate                            : 48.0 kHz
Frame rate                              : 31.250 FPS (1536 SPF)
Compression mode                        : Lossy
Stream size                              : 151 MiB (7%)
Title                                    : Mortal Kombat - 2021 | Filmbol.org
Language                                : English
Service kind                            : Complete Main
Default                                  : No
Forced                                  : No

Text
ID                                      : 4
Format                                  : UTF-8
Codec ID                                : S_TEXT/UTF8
Codec ID/Info                            : UTF-8 Plain Text
Duration                                : 1 h 37 min
Bit rate                                : 36 b/s
Count of elements                        : 804
Stream size                              : 26.3 KiB (0%)
Title                                    : Mortal Kombat - 2021 | Filmbol.org
Language                                : Turkish
Default                                  : No
Forced                                  : No

Film Detayları


 Mortal Kombat

 Mortal Kombat

 Mortal Kombat


Film Fragmanı


Film Detayları



Zip Şifresi: filmbol.org Aşağıdaki butona tıklayarak kopyalabilirsiniz.


Uptobox ile indir

1Fichier ile indir

1Fichier'den İndiremiyor musun? Tıklayın!





Filmbol Cloud

Bunun için üzgünüz ancak, bu linke sadece premium üyeler erişebilir.




WWW
Şuan Online!
Şuan Online!
Aspirin46 Süper Üye
***
Super Üye
  • Konular0
  • Mesajlar93
  • Rep puanı 0
süper
Şuan Online!
Şuan Online!
TheSteeL Chief Executive Officer
******
CEO
(08-07-2021, Saat: 11:13)Aspirin46 Adlı Kullanıcıdan Alıntı: süper
İyi Seyirler
Şuan Online!
Şuan Online!
sectechno Süper Üye
***
Super Üye
  • Konular5
  • Mesajlar113
  • Rep puanı 5
Teşekkürler arkadaşım.İyi çalışmalar.
Şuan Offine!
Şuan Offine!
mdmd41 Uzman Üye
**
Uzman Üye
  • Konular0
  • Mesajlar22
  • Rep puanı 0
çok güzel herzamnki gibi
Şuan Offine!
Şuan Offine!
Karabela_61 Yeni Üye
*
Üye
  • Konular0
  • Mesajlar7
  • Rep puanı 0
tesekkurler admin


Hızlı Menü: