Filmbol Forum Film İndir BRRip XviD v Mortal Kombat - 2021 - TR - BRRip XviD | tt0293429
Bildirimi Kapat
Merhaba , site giderlerini bir nebze olsun karşılamak adına link kısaltma servisleri kullanmaya başladık. İndirme linkleri sizi ouo.io adresinde yönlendirecek, 3 saniye geçtikten sonra Get Link butonuna tıklayarak linke ulaşacaksınız. Premium üyeler bu durumdan etkilenmeyecektir.


Premium Üyelik Al

Mortal Kombat - 2021 - TR - BRRip XviD | tt0293429
TheSteeL
Mortal Kombat - 2021 - TR - BRRip XviD | tt0293429
1
195
  • Derecelendirme: 0/5 - 0 oy
  • 1
  • 2
  • 3
  • 4
  • 5
Konuyu Okuyanlar:2 Ziyaretçi
Şuan Online!
Filmin Yayınlanma Tarihi: 2021 
Şuan Online!
TheSteeL Chief Executive Officer
******
CEO


 Mortal Kombat



Cole, küçüklükten gelen dövüş sanatlarına hayranlığı ile her zaman kendini bu konuda geliştirmeye çalışmıştır. Bu işte yeteneğe de sahip olan Cole, önüne gelen herkesi yenmeye başlar. Bu durumda ülke genelinin ve hatta imparatorun bile dikkatini çekmeyi başaran Cole, artık rahat uyku uyuyamaz olur. İmparator onun bu başarısına öfkelenir ve karşısına devlet tarafından özel olarak eğitilmiş birini çıkarmaya karar verir. Bunu öğrenen Cole, imparatora karşı gelemeyeceğini, dövüşü kazansa bile hem kendinin hemde ailesinin bu durumdan ciddi zararlar göreceğini anlar. Bu yüzden hem iyi bir eğitim almak hemde dövüşü şayet yenerse , imparatorluğun olası saldırısına karşı kendine sağlam bir ekip kurmak üzere yola çıkar...

Mortal Kombat (2021) | tt0293429 Filmi Imdb'den 119000 kişi tarafından oylandı ve 6,2 puan aldı. Bu film için editör puanı %73 olarak belirlendi. İyi Seyirler!

Teknik Detaylar

Kod :
General
Unique ID                                : 211516373887450957532418463422658949702 (0x9F209262C860E91E6217C5B13D04B246)
Complete name                            : /home/TheSteel/Desktop/2/Mortal.Kombat.2021.BDRip.XViD.TR.Filmbol.avi
Format                                   : Matroska
Format version                           : Version 4
File size                                : 1.26 GiB
Duration                                 : 1 h 50 min
Overall bit rate                         : 1 636 kb/s
Movie name                               : Mortal Kombat - 2021 | Filmbol.org
Encoded date                             : UTC 2021-07-05 16:50:08
Writing application                      : mkvmerge v31.0.0 ('Dolores In A Shoestand') 64-bit
Writing library                          : libebml v1.3.6 + libmatroska v1.4.9
FileExtension_Invalid                    : mkv mk3d mka mks

Video
ID                                       : 1
Format                                   : MPEG-4 Visual
Format profile                           : Advanced [email protected]
Format settings                          : BVOP1 / Custom Matrix
Format settings, BVOP                    : 1
Format settings, QPel                    : No
Format settings, GMC                     : No warppoints
Format settings, Matrix                  : Custom
Codec ID                                 : V_MS/VFW/FOURCC / XVID
Codec ID/Hint                            : XviD
Duration                                 : 1 h 50 min
Bit rate                                 : 1 506 kb/s
Width                                    : 720 pixels
Height                                   : 304 pixels
Display aspect ratio                     : 2.35:1
Frame rate mode                          : Constant
Frame rate                               : 23.976 (23976/1000) FPS
Color space                              : YUV
Chroma subsampling                       : 4:2:0
Bit depth                                : 8 bits
Scan type                                : Progressive
Compression mode                         : Lossy
Bits/(Pixel*Frame)                       : 0.287
Stream size                              : 1.16 GiB (92%)
Title                                    : Mortal Kombat - 2021 | Filmbol.org
Writing library                          : XviD 73
Default                                  : Yes
Forced                                   : No

Audio
ID                                       : 2
Format                                   : MPEG Audio
Format version                           : Version 1
Format profile                           : Layer 3
Format settings                          : Joint stereo
Codec ID                                 : A_MPEG/L3
Codec ID/Hint                            : MP3
Duration                                 : 1 h 50 min
Bit rate mode                            : Constant
Bit rate                                 : 128 kb/s
Channel(s)                               : 2 channels
Sampling rate                            : 48.0 kHz
Frame rate                               : 41.667 FPS (1152 SPF)
Compression mode                         : Lossy
Stream size                              : 101 MiB (8%)
Title                                    : Mortal Kombat - 2021 | Filmbol.org
Writing library                          : LAME3.99.5
Default                                  : Yes
Forced                                   : No

Film Detayları


 Mortal Kombat

 Mortal Kombat

 Mortal Kombat


Film Fragmanı


Film Detayları



Zip Şifresi: filmbol.org Aşağıdaki butona tıklayarak kopyalabilirsiniz.



Uptobox ile indir

1Fichier ile indir

1Fichier'den İndiremiyor musun? Tıklayın!





Filmbol Cloud

Bunun için üzgünüz ancak, bu linke sadece premium üyeler erişebilir.




WWW
Şuan Online!
Şuan Online!
sectechno Süper Üye
***
Super Üye
  • Konular5
  • Mesajlar113
  • Rep puanı 5
Teşekkürler arkadaşım.İyi çalışmalar.


Hızlı Menü: