Filmbol Forum Film İndir FHD - FULL HD v Bir Yıldız Doğuyor (A Star Is Born) - 2018 - TR+ORG - FHD - x264 | tt1517451
Bildirimi Kapat
Merhaba , site giderlerini bir nebze olsun karşılamak adına link kısaltma servisleri kullanmaya başladık. İndirme linkleri sizi ouo.io adresinde yönlendirecek, 3 saniye geçtikten sonra Get Link butonuna tıklayarak linke ulaşacaksınız. Premium üyeler bu durumdan etkilenmeyecektir.


Premium Üyelik Al

Bir Yıldız Doğuyor (A Star Is Born) - 2018 - TR+ORG - FHD - x264 | tt1517451
BroserBros
Bir Yıldız Doğuyor (A Star Is Born) - 2018 - TR+ORG - FHD - x264 | tt1517451
0
18
  • Derecelendirme: 0/5 - 0 oy
  • 1
  • 2
  • 3
  • 4
  • 5
Konuyu Okuyanlar:3 Ziyaretçi
Şuan Online!
Filmin Yayınlanma Tarihi: 2018 
Şuan Online!
BroserBros Kurucu Admin
*******
Admin


 Bir Yıldız Doğuyor



Bir Yıldız Doğuyor, yetenekli ancak bilinmeyen Ally’yi keşfedince düşüşün eşiğine gelen bir country müzik yıldızı olan Jackson Maine’i konu alıyor. Jackson Maine, kariyerinde düşüş gösteren bir müzisyendir. Henüz keşfedilmemiş genç bir yetenek olan Ally ile tanışır ve ikili birbirlerinden hemen etkilenir. İkili tutkulu bir aşk yaşamaya başlar ve Ally’nin yeteneğinin farkedilmesi için çalışan Jackson onu sahnenin büyülü dünyası ile tanıştırır. Jack Ally’yi şöhrete kavuşturduktan kısa süre sonra ise Ally artık ünlü bir müzisyen olmuştur. Jack, Ally’nin kariyerinin hızla kendisininkini gölgede bıraktığını fark eder. Kaybolan ihtişamını geri kazanmaya çalışan Jack bu süreçte içsel şeytanlarıyla da yüzleşmek zorunda kalacaktır. İkilinin kariyerlerindeki ayrım büyüdükçe, ilişkileri de hasar almaya başlar… 4 Oscar adayı başarılı oyuncu Bradley Cooper ve Lady Gaga’nın başrollerini paylaştığı filmde Bradley Cooper, ilk kez yönetmen koltuğuna geçiyor. Kadrosunda Sam Elliott, Andrew Dice Clay, Rafi Gavron, Michael Harney gibi oyuncuların da yer aldığı filmin senaryosunda Eric Roth, Will Fetters ve Bradley Cooper’ın imzası bulunuyor.

Bir Yıldız Doğuyor (2018) (A Star Is Born) | tt1517451 Filmi Imdb'den 400,000 kişi tarafından oylandı ve 7,6 puan aldı. Bu film için editör puanı %84 olarak belirlendi. İyi Seyirler!

Teknik Detaylar

Kod :
General
Unique ID                                : 335585720861699378257159241807142167669 (0xFC7775789C7DD999452BEA671ABDA475)
Complete name                            : /home/BroserBros/Desktop/6/Bir.Yıldız.Doğuyor.2018.FHD.BluRay.x264.TR.ENG.Filmbol.mkv
Format                                   : Matroska
Format version                           : Version 4
File size                                : 4.90 GiB
Duration                                 : 2 h 15 min
Overall bit rate                         : 5 165 kb/s
Movie name                               : Bir Yıldız Doğuyor - A Star Is Born - 2018 | Filmbol.org
Encoded date                             : UTC 2021-06-19 07:34:55
Writing application                      : mkvmerge v53.0.0 ('Fool's Gold') 64-bit
Writing library                          : libebml v1.4.1 + libmatroska v1.6.2
Cover                                    : Yes
Attachments                              : small_cover.jpg / small_cover_land.jpg / cover.jpg / cover_land.jpg

Video
ID                                       : 1
Format                                   : AVC
Format/Info                              : Advanced Video Codec
Format profile                           : [email protected]
Format settings                          : CABAC / 5 Ref Frames
Format settings, CABAC                   : Yes
Format settings, Reference frames        : 5 frames
Codec ID                                 : V_MPEG4/ISO/AVC
Duration                                 : 2 h 15 min
Bit rate                                 : 4 556 kb/s
Width                                    : 1 920 pixels
Height                                   : 800 pixels
Display aspect ratio                     : 2.40:1
Frame rate mode                          : Constant
Frame rate                               : 23.976 (24000/1001) FPS
Color space                              : YUV
Chroma subsampling                       : 4:2:0
Bit depth                                : 8 bits
Scan type                                : Progressive
Bits/(Pixel*Frame)                       : 0.124
Stream size                              : 4.32 GiB (88%)
Title                                    : FHD - Filmbol.org
Language                                 : English
Default                                  : Yes
Forced                                   : No
Color range                              : Limited
Color primaries                          : BT.709
Transfer characteristics                 : BT.709
Matrix coefficients                      : BT.709

Audio #1
ID                                       : 2
Format                                   : AC-3
Format/Info                              : Audio Coding 3
Commercial name                          : Dolby Digital
Codec ID                                 : A_AC3
Duration                                 : 2 h 15 min
Bit rate mode                            : Constant
Bit rate                                 : 224 kb/s
Channel(s)                               : 2 channels
Channel layout                           : L R
Sampling rate                            : 48.0 kHz
Frame rate                               : 31.250 FPS (1536 SPF)
Compression mode                         : Lossy
Stream size                              : 217 MiB (4%)
Title                                    : Türkçe - Filmbol.org
Language                                 : Turkish
Service kind                             : Complete Main
Default                                  : Yes
Forced                                   : No

Audio #2
ID                                       : 3
Format                                   : AC-3
Format/Info                              : Audio Coding 3
Commercial name                          : Dolby Digital
Codec ID                                 : A_AC3
Duration                                 : 2 h 15 min
Bit rate mode                            : Constant
Bit rate                                 : 384 kb/s
Channel(s)                               : 6 channels
Channel layout                           : L R C LFE Ls Rs
Sampling rate                            : 48.0 kHz
Frame rate                               : 31.250 FPS (1536 SPF)
Compression mode                         : Lossy
Stream size                              : 373 MiB (7%)
Title                                    : Orijinal Dil - Filmbol.org
Language                                 : English
Service kind                             : Complete Main
Default                                  : No
Forced                                   : No

Text
ID                                       : 4
Format                                   : UTF-8
Codec ID                                 : S_TEXT/UTF8
Codec ID/Info                            : UTF-8 Plain Text
Duration                                 : 2 h 14 min
Bit rate                                 : 62 b/s
Count of elements                        : 1841
Stream size                              : 61.7 KiB (0%)
Title                                    : Türkçe - Filmbol.org
Language                                 : Turkish
Default                                  : No
Forced                                   : No

Film Detayları


 Bir Yıldız Doğuyor

 Bir Yıldız Doğuyor

 Bir Yıldız Doğuyor


Film Fragmanı


Film Detayları



Zip Şifresi: filmbol.org Aşağıdaki butona tıklayarak kopyalabilirsiniz.





Filmbol Cloud

Bunun için üzgünüz ancak, bu linke sadece premium üyeler erişebilir.




WWW


Hızlı Menü: