Filmbol Forum Film İndir 720P v Bir Yıldız Doğuyor (A Star Is Born) Türkçe Dublaj BLURAY m720P İndir
Mega linklerinin şikayet edilmemesi için global erişime kapatıp sadece yorum yapanlara açıyoruz. Bu linkleri gizleme işlemini mecburen yapıyoruz ve yorum yapmanızın siteye değil size faydası vardır. Teşekürler yazmayı çok görüp, Random/Spam mesajlar atarak Mega linklerini açmaya çalışan kullanıcılara önce süresiz ban, devam ederse IP ban atacağız.
Filmbol'da moderatör olmak ister misiniz? Bizimle iletişime geçmek için tıklayın!
Bir Yıldız Doğuyor (A Star Is Born) Türkçe Dublaj BLURAY m720P İndir
BroserBros
Bir Yıldız Doğuyor (A Star Is Born) Türkçe Dublaj BLURAY m720P İndir
0
417
  • Derecelendirme: 0/5 - 0 oy
  • 1
  • 2
  • 3
  • 4
  • 5
Konuyu Okuyanlar:1 Ziyaretçi
Şuan Online!
Filmin Yayınlanma Tarihi: 2018 
WWW
Şuan Online!
BroserBros Kurucu Admin
*******
Admin





Ses Kodek: AC3


Audio Coding 3 (AC3)






Bir



Teknik Detaylar

Kod :
General
Complete name                            : Şiddet.Eylemleri.2018.m720p.BluRay.x264.TR.Filmbol.mkv
Format                                   : Matroska
Format version                           : Version 4 / Version 2
File size                                : 968 MiB
Duration                                 : 1h 32mn
Overall bit rate                         : 1 464 Kbps
Movie name                               : Şiddet Eylemleri (2018) - Filmbol.org
Encoded date                             : UTC 2019-09-01 15:00:02
Writing application                      : mkvmerge v35.0.0 ('All The Love In The World') 64-bit
Writing library                          : libebml v1.3.9 + libmatroska v1.5.2

Video
ID                                       : 1
Format                                   : AVC
Format/Info                              : Advanced Video Codec
Format profile                           : [email protected]
Format settings, CABAC                   : Yes
Format settings, ReFrames                : 2 frames
Codec ID                                 : V_MPEG4/ISO/AVC
Duration                                 : 1h 32mn
Bit rate                                 : 1 270 Kbps
Width                                    : 1 280 pixels
Height                                   : 536 pixels
Display aspect ratio                     : 2.40:1
Frame rate mode                          : Constant
Frame rate                               : 23.976 fps
Color space                              : YUV
Chroma subsampling                       : 4:2:0
Bit depth                                : 8 bits
Scan type                                : Progressive
Bits/(Pixel*Frame)                       : 0.077
Stream size                              : 840 MiB (87%)
Title                                    : 720P - Filmbol.org
Default                                  : Yes
Forced                                   : No

Audio
ID                                       : 2
Format                                   : AC-3
Format/Info                              : Audio Coding 3
Mode extension                           : CM (complete main)
Format settings, Endianness              : Big
Codec ID                                 : A_AC3
Duration                                 : 1h 32mn
Bit rate mode                            : Constant
Bit rate                                 : 192 Kbps
Channel(s)                               : 2 channels
Channel positions                        : Front: L R
Sampling rate                            : 48.0 KHz
Frame rate                               : 31.250 fps (1536 spf)
Compression mode                         : Lossy
Stream size                              : 127 MiB (13%)
Title                                    : Türkçe - Filmbol.org
Language                                 : Turkish
Default                                  : Yes
Forced                                   : No



Film Detayları


Bir Yildiz Doguyor

Bir Yildiz Doguyor

Bir Yildiz Doguyor



Film Fragmanı


Film Detayları

Mini 720P İndir


Uptobox ile indir


Mega linki şuan da gizli. Kullanıma açmak için konuya yorum yapın ve ardından sayfayı yenileyin.

Mega


aQh2

MediaFire ile indir



Konu ile Alakalı Benzer Konular
Konular Yazar Yorumlar Okunma Son Yorum
Filmin Yayınlanma Tarihi: 2014
Hobbit: Beş Ordunun Savaşı Türkçe Dublaj 720P İndir BroserBros 7 5,595 03-04-2021, Saat: 22:08
Son Yorum: Dilan
Filmin Yayınlanma Tarihi: 2013
Hobbit: Smaug'un Çorak Toprakları Türkçe Dublaj 720P İndir BroserBros 2 4,027 03-04-2021, Saat: 22:07
Son Yorum: Dilan
Filmin Yayınlanma Tarihi: 2012
Hobbit: Beklenmedik Yolculuk (An Unexpected Journey) Türkçe Dublaj 720P İndir BroserBros 3 6,125 03-04-2021, Saat: 20:48
Son Yorum: Dilan
Filmin Yayınlanma Tarihi: 2014
İnsan Avı (A Most Wanted Man) Türkçe Dublaj m720P İndir BroserBros 2 1,186 03-04-2021, Saat: 00:51
Son Yorum: jonwik47
Filmin Yayınlanma Tarihi: 2015
Ters Yüz (Inside Out) Türkçe Dublaj 720P İndir BroserBros 9 7,053 01-04-2021, Saat: 16:28
Son Yorum: ahmetyee1

Hızlı Menü: