Filmbol Forum Film İndir 1080P v Bir Yıldız Doğuyor (A Star Is Born) Türkçe Dublaj BLURAY m1080P İndir
Mega linklerinin şikayet edilmemesi için global erişime kapatıp sadece yorum yapanlara açıyoruz. Bu linkleri gizleme işlemini mecburen yapıyoruz ve yorum yapmanızın siteye değil size faydası vardır. Teşekürler yazmayı çok görüp, Random/Spam mesajlar atarak Mega linklerini açmaya çalışan kullanıcılara önce süresiz ban, devam ederse IP ban atacağız.
Filmbol'da moderatör olmak ister misiniz? Bizimle iletişime geçmek için tıklayın!
Bir Yıldız Doğuyor (A Star Is Born) Türkçe Dublaj BLURAY m1080P İndir
BroserBros
Bir Yıldız Doğuyor (A Star Is Born) Türkçe Dublaj BLURAY m1080P İndir
4
799
  • Derecelendirme: 0/5 - 0 oy
  • 1
  • 2
  • 3
  • 4
  • 5
Konuyu Okuyanlar:1 Ziyaretçi
Şuan Online!
Filmin Yayınlanma Tarihi: 2018 
WWW
Şuan Online!
BroserBros Kurucu Admin
*******
Admin





Ses Kodek: AC3


Audio Coding 3 (AC3)






Bir



Teknik Detaylar

Kod :
General
Complete name                            : Şiddet.Eylemleri.2018.m1080p.BluRay.x264.TR.Filmbol.mkv
Format                                   : Matroska
Format version                           : Version 4 / Version 2
File size                                : 1.52 GiB
Duration                                 : 1h 32mn
Overall bit rate                         : 2 354 Kbps
Movie name                               : Şiddet Eylemleri (2018) - Filmbol.org
Encoded date                             : UTC 2019-09-01 15:00:37
Writing application                      : mkvmerge v35.0.0 ('All The Love In The World') 64-bit
Writing library                          : libebml v1.3.9 + libmatroska v1.5.2

Video
ID                                       : 1
Format                                   : AVC
Format/Info                              : Advanced Video Codec
Format profile                           : [email protected]
Format settings, CABAC                   : Yes
Format settings, ReFrames                : 2 frames
Codec ID                                 : V_MPEG4/ISO/AVC
Duration                                 : 1h 32mn
Bit rate                                 : 2 160 Kbps
Width                                    : 1 920 pixels
Height                                   : 808 pixels
Display aspect ratio                     : 2.40:1
Frame rate mode                          : Constant
Frame rate                               : 23.976 fps
Color space                              : YUV
Chroma subsampling                       : 4:2:0
Bit depth                                : 8 bits
Scan type                                : Progressive
Bits/(Pixel*Frame)                       : 0.058
Stream size                              : 1.40 GiB (92%)
Title                                    : 1080P - Filmbol.org
Default                                  : Yes
Forced                                   : No

Audio
ID                                       : 2
Format                                   : AC-3
Format/Info                              : Audio Coding 3
Mode extension                           : CM (complete main)
Format settings, Endianness              : Big
Codec ID                                 : A_AC3
Duration                                 : 1h 32mn
Bit rate mode                            : Constant
Bit rate                                 : 192 Kbps
Channel(s)                               : 2 channels
Channel positions                        : Front: L R
Sampling rate                            : 48.0 KHz
Frame rate                               : 31.250 fps (1536 spf)
Compression mode                         : Lossy
Stream size                              : 127 MiB (8%)
Title                                    : Türkçe - Filmbol.org
Language                                 : Turkish
Default                                  : Yes
Forced                                   : No



Film Detayları


Bir Yildiz Doguyor

Bir Yildiz Doguyor

Bir Yildiz Doguyor



Film Fragmanı


Film Detayları

Mini 1080P İndir


Uptobox ile indir


Mega linki şuan da gizli. Kullanıma açmak için konuya yorum yapın ve ardından sayfayı yenileyin.

Mega


f2ql

MediaFire ile indir

Google Drive linki şuan da gizli. Kullanıma açmak için konuya yorum yapın ve ardından sayfayı yenileyin.

Google Drive


Şuan Offine!
Şuan Offine!
ORHun Süper Üye
***
Super Üye

  • Konular0
  • Mesajlar31
  • Rep puanı 0
RGWHS
Şuan Offine!
Şuan Offine!
Murat94 Süper Üye
***
Super Üye

  • Konular0
  • Mesajlar36
  • Rep puanı 0
Tanks
Şuan Offine!
Şuan Offine!
merve320 Uzman Üye
**
Uzman Üye

  • Konular0
  • Mesajlar17
  • Rep puanı 0
Teşekkürler
Şuan Offine!
Şuan Offine!
kutayasln Uzman Üye
**
Uzman Üye

  • Konular0
  • Mesajlar10
  • Rep puanı 0
good film


Konu ile Alakalı Benzer Konular
Konular Yazar Yorumlar Okunma Son Yorum
Filmin Yayınlanma Tarihi: 2016
Jack Reacher: Asla Geri Dönme (J.R: Never Go Back) Türkçe Dublaj m1080P İndir BroserBros 6 2,301 8 saat önce
Son Yorum: Erenio0
Filmin Yayınlanma Tarihi: 2019
Godzilla 2: Canavarlar Kralı (King of the Monsters) Türkçe Dublaj BLURAY m1080P İndir BroserBros 32 2,441 11 saat önce
Son Yorum: FCBTZR
Filmin Yayınlanma Tarihi: 2016
Kung Fu Panda 3 Türkçe Dublaj m1080P İndir BroserBros 16 7,461 , Saat: 09:32
Son Yorum: metlebision
Filmin Yayınlanma Tarihi: 2014
Godzilla (Godzilla) Türkçe Dublaj 1080P İndir BroserBros 5 2,068 , Saat: 01:35
Son Yorum: FCBTZR
Filmin Yayınlanma Tarihi: 2005
Harry Potter ve Ateş Kadehi (Goblet of Fire) Türkçe Dublaj BLURAY 1080P İndir BroserBros 31 3,128 09-04-2021, Saat: 23:56
Son Yorum: axpell

Hızlı Menü: