Filmbol Forum Film İndir FHD - FULL HD v Oslo (Oslo) - 2021 - TR+ORG - FHD - x264 | tt11790674
Bildirimi Kapat
Merhaba , site giderlerini bir nebze olsun karşılamak adına link kısaltma servisleri kullanmaya başladık. İndirme linkleri sizi ouo.io adresinde yönlendirecek, 3 saniye geçtikten sonra Get Link butonuna tıklayarak linke ulaşacaksınız. Premium üyeler bu durumdan etkilenmeyecektir.


Premium Üyelik Al

Oslo (Oslo) - 2021 - TR+ORG - FHD - x264 | tt11790674
TheSteeL
Oslo (Oslo) - 2021 - TR+ORG - FHD - x264 | tt11790674
0
25
  • Derecelendirme: 0/5 - 0 oy
  • 1
  • 2
  • 3
  • 4
  • 5
Konuyu Okuyanlar:1 Ziyaretçi
Şuan Online!
Filmin Yayınlanma Tarihi: 2021 
Şuan Online!
TheSteeL Chief Executive Officer
******
CEO


 Oslo



Oslo Barış Anlaşmaları Norveç'in başkenti olan Oslo'da gerçekleştirildi. Net bir tarafsızlık ile tüm ülkelere yaklaşan Norveç'in düzenlediği bu barış anlaşmaları tüm dünya ülkeleri ile birlikte katılım gösterebileceği bir yer haline gelmişti. Oslo filmi ise yine bu Barış Anlaşmalarından birisi olan İsrail ile Filistin'in saldırmazlık anlaşmasına odaklanıyor. 1993 yılında imzalanan anlaşmaya göre iki tarafta tüm varlıklarına kanaat edip yeni bir savaşa sürüklenmeyecekti. Fakat görüşmeler bu şekilde başarılı gitse de iş kağıtta kaldı. İsrail saldırmazlık anlaşmasını bozdu ve saldırıya geçti. Bunun üzerine Filistin anlaşmayı resmen feshettiğini duyurdu.

Oslo (2021) (Oslo) | tt11790674 Filmi Imdb'den 1500 kişi tarafından oylandı ve 6,5 puan aldı. Bu film için editör puanı %68 olarak belirlendi. İyi Seyirler!

Teknik Detaylar

Kod :
General
Unique ID                                : 316848040325249549636514664750856856679 (0xEE5EB67E892256281EDF3A759FCCE467)
Complete name                            : /home/TheSteel/Desktop/3/Oslo.2021.FHD.WEB-DL.x264.TR.ENG.Filmbol.mkv
Format                                   : Matroska
Format version                           : Version 4
File size                                : 8.28 GiB
Duration                                 : 1 h 58 min
Overall bit rate                         : 10.0 Mb/s
Movie name                               : Oslo - 2021 | Filmbol.org
Encoded date                             : UTC 2021-06-02 10:03:45
Writing application                      : mkvmerge v31.0.0 ('Dolores In A Shoestand') 64-bit
Writing library                          : libebml v1.3.6 + libmatroska v1.4.9

Video
ID                                       : 1
Format                                   : AVC
Format/Info                              : Advanced Video Codec
Format profile                           : [email protected]
Format settings                          : CABAC / 4 Ref Frames
Format settings, CABAC                   : Yes
Format settings, Reference frames        : 4 frames
Codec ID                                 : V_MPEG4/ISO/AVC
Duration                                 : 1 h 58 min
Bit rate mode                            : Constant
Bit rate                                 : 9 209 kb/s
Nominal bit rate                         : 10 000 kb/s
Width                                    : 1 920 pixels
Height                                   : 1 080 pixels
Display aspect ratio                     : 16:9
Frame rate mode                          : Constant
Frame rate                               : 23.976 (24000/1001) FPS
Color space                              : YUV
Chroma subsampling                       : 4:2:0
Bit depth                                : 8 bits
Scan type                                : Progressive
Bits/(Pixel*Frame)                       : 0.185
Stream size                              : 7.59 GiB (92%)
Title                                    : Oslo - 2021 | Filmbol.org
Default                                  : Yes
Forced                                   : No
Color range                              : Limited
Color primaries                          : BT.709
Transfer characteristics                 : BT.709
Matrix coefficients                      : BT.709

Audio #1
ID                                       : 2
Format                                   : AC-3
Format/Info                              : Audio Coding 3
Commercial name                          : Dolby Digital
Codec ID                                 : A_AC3
Duration                                 : 1 h 57 min
Bit rate mode                            : Constant
Bit rate                                 : 192 kb/s
Channel(s)                               : 2 channels
Channel layout                           : L R
Sampling rate                            : 48.0 kHz
Frame rate                               : 31.250 FPS (1536 SPF)
Compression mode                         : Lossy
Stream size                              : 162 MiB (2%)
Title                                    : Oslo - 2021 | Filmbol.org
Language                                 : Turkish
Service kind                             : Complete Main
Default                                  : Yes
Forced                                   : No

Audio #2
ID                                       : 3
Format                                   : AC-3
Format/Info                              : Audio Coding 3
Commercial name                          : Dolby Digital
Codec ID                                 : A_AC3
Duration                                 : 1 h 58 min
Bit rate mode                            : Constant
Bit rate                                 : 640 kb/s
Channel(s)                               : 6 channels
Channel layout                           : L R C LFE Ls Rs
Sampling rate                            : 48.0 kHz
Frame rate                               : 31.250 FPS (1536 SPF)
Compression mode                         : Lossy
Stream size                              : 540 MiB (6%)
Title                                    : Oslo - 2021 | Filmbol.org
Language                                 : English
Service kind                             : Complete Main
Default                                  : No
Forced                                   : No

Text
ID                                       : 4
Format                                   : UTF-8
Codec ID                                 : S_TEXT/UTF8
Codec ID/Info                            : UTF-8 Plain Text
Duration                                 : 1 h 52 min
Bit rate                                 : 57 b/s
Count of elements                        : 1179
Stream size                              : 47.2 KiB (0%)
Title                                    : Oslo - 2021 | Filmbol.org
Language                                 : Turkish
Default                                  : No
Forced                                   : No

Film Detayları


 Oslo

 Oslo

 Oslo


Film Fragmanı


Film Detayları



Zip Şifresi: filmbol.org Aşağıdaki butona tıklayarak kopyalabilirsiniz.





Filmbol Cloud

Bunun için üzgünüz ancak, bu linke sadece premium üyeler erişebilir.




WWW


Hızlı Menü: