Filmbol Forum Film İndir BRRip XviD v Oslo (Oslo) - 2021 - TR - BRRip XviD | tt11790674

Premium Üyelik Al

Bildirimi Kapat
Mega linklerinin şikayet edilmemesi için global erişime kapatıp sadece yorum yapanlara açıyoruz. Bu linkleri gizleme işlemini mecburen yapıyoruz ve yorum yapmanızın siteye değil size faydası vardır. Teşekkürler yazmayı çok görüp, Random/Spam/Anlamsız mesajlar atarak forumu kirletip Mega linklerini açmaya çalışan kullanıcılara süresiz ban atacağız.


Oslo (Oslo) - 2021 - TR - BRRip XviD | tt11790674
TheSteeL
Oslo (Oslo) - 2021 - TR - BRRip XviD | tt11790674
0
9
  • Derecelendirme: 0/5 - 0 oy
  • 1
  • 2
  • 3
  • 4
  • 5
Konuyu Okuyanlar:1 Ziyaretçi
Şuan Online!
Filmin Yayınlanma Tarihi: 2021 
WWW
Şuan Online!
TheSteeL Süper Moderatör
*****
Süper Moderatör



 Oslo



Oslo Barış Anlaşmaları Norveç'in başkenti olan Oslo'da gerçekleştirildi. Net bir tarafsızlık ile tüm ülkelere yaklaşan Norveç'in düzenlediği bu barış anlaşmaları tüm dünya ülkeleri ile birlikte katılım gösterebileceği bir yer haline gelmişti. Oslo filmi ise yine bu Barış Anlaşmalarından birisi olan İsrail ile Filistin'in saldırmazlık anlaşmasına odaklanıyor. 1993 yılında imzalanan anlaşmaya göre iki tarafta tüm varlıklarına kanaat edip yeni bir savaşa sürüklenmeyecekti. Fakat görüşmeler bu şekilde başarılı gitse de iş kağıtta kaldı. İsrail saldırmazlık anlaşmasını bozdu ve saldırıya geçti. Bunun üzerine Filistin anlaşmayı resmen feshettiğini duyurdu.

Oslo (2021) (Oslo) | tt11790674 Filmi Imdb'den 1500 kişi tarafından oylandı ve 6,5 puan aldı. Bu film için editör puanı %68 olarak belirlendi. İyi Seyirler!

Teknik Detaylar

Kod :
General
Unique ID                                : 143804132540611015837504182563034579980 (0x6C2FAB22BA676665C2B1CD1AA3F3440C)
Complete name                            : /home/TheSteel/Desktop/3/Oslo.2021.HDrip.XViD.TR.Filmbol.avi
Format                                   : Matroska
Format version                           : Version 4
File size                                : 1.11 GiB
Duration                                 : 1 h 58 min
Overall bit rate                         : 1 346 kb/s
Movie name                               : Oslo - 2021 | Filmbol.org
Encoded date                             : UTC 2021-06-02 10:07:32
Writing application                      : mkvmerge v31.0.0 ('Dolores In A Shoestand') 64-bit
Writing library                          : libebml v1.3.6 + libmatroska v1.4.9
FileExtension_Invalid                    : mkv mk3d mka mks

Video
ID                                       : 1
Format                                   : MPEG-4 Visual
Format profile                           : [email protected]
Format settings, BVOP                    : No
Format settings, QPel                    : No
Format settings, GMC                     : No warppoints
Format settings, Matrix                  : Default (H.263)
Codec ID                                 : V_MS/VFW/FOURCC / XVID
Codec ID/Hint                            : XviD
Duration                                 : 1 h 58 min
Bit rate                                 : 1 216 kb/s
Width                                    : 720 pixels
Height                                   : 360 pixels
Display aspect ratio                     : 2.000
Frame rate mode                          : Constant
Frame rate                               : 23.976 FPS
Color space                              : YUV
Chroma subsampling                       : 4:2:0
Bit depth                                : 8 bits
Scan type                                : Progressive
Compression mode                         : Lossy
Bits/(Pixel*Frame)                       : 0.196
Stream size                              : 1.00 GiB (90%)
Title                                    : Oslo - 2021 | Filmbol.org
Writing library                          : Lavc58.35.100
Default                                  : Yes
Forced                                   : No

Audio
ID                                       : 2
Format                                   : MPEG Audio
Format version                           : Version 1
Format profile                           : Layer 3
Format settings                          : Joint stereo / MS Stereo
Codec ID                                 : A_MPEG/L3
Codec ID/Hint                            : MP3
Duration                                 : 1 h 57 min
Bit rate mode                            : Constant
Bit rate                                 : 128 kb/s
Channel(s)                               : 2 channels
Sampling rate                            : 48.0 kHz
Frame rate                               : 41.667 FPS (1152 SPF)
Compression mode                         : Lossy
Stream size                              : 108 MiB (10%)
Title                                    : Oslo - 2021 | Filmbol.org
Default                                  : Yes
Forced                                   : No

Film Detayları


 Oslo

 Oslo

 Oslo


Film Fragmanı


Film Detayları


Uptobox ile indir

1Fichier ile indir

1Fichier'den İndiremiyor musun? Tıklayın!


Mega linki şuan da gizli. Kullanıma açmak için konuya yorum yapın ve ardından sayfayı yenileyin.

Mega


Bunun için üzgünüz ancak, bu linke sadece premium üyeler erişebilir.

Filmbol Cloud







Hızlı Menü: