Filmbol Forum Film İndir 720P v Oslo (Oslo) - 2021 - TR+ORG - 720P | tt11790674

Premium Üyelik Al

Bildirimi Kapat
Mega linklerinin şikayet edilmemesi için global erişime kapatıp sadece yorum yapanlara açıyoruz. Bu linkleri gizleme işlemini mecburen yapıyoruz ve yorum yapmanızın siteye değil size faydası vardır. Teşekkürler yazmayı çok görüp, Random/Spam/Anlamsız mesajlar atarak forumu kirletip Mega linklerini açmaya çalışan kullanıcılara süresiz ban atacağız.


Oslo (Oslo) - 2021 - TR+ORG - 720P | tt11790674
TheSteeL
Oslo (Oslo) - 2021 - TR+ORG - 720P | tt11790674
0
10
  • Derecelendirme: 0/5 - 0 oy
  • 1
  • 2
  • 3
  • 4
  • 5
Konuyu Okuyanlar:1 Ziyaretçi
Şuan Online!
Filmin Yayınlanma Tarihi: 2021 
WWW
Şuan Online!
TheSteeL Süper Moderatör
*****
Süper Moderatör



 Oslo



Oslo Barış Anlaşmaları Norveç'in başkenti olan Oslo'da gerçekleştirildi. Net bir tarafsızlık ile tüm ülkelere yaklaşan Norveç'in düzenlediği bu barış anlaşmaları tüm dünya ülkeleri ile birlikte katılım gösterebileceği bir yer haline gelmişti. Oslo filmi ise yine bu Barış Anlaşmalarından birisi olan İsrail ile Filistin'in saldırmazlık anlaşmasına odaklanıyor. 1993 yılında imzalanan anlaşmaya göre iki tarafta tüm varlıklarına kanaat edip yeni bir savaşa sürüklenmeyecekti. Fakat görüşmeler bu şekilde başarılı gitse de iş kağıtta kaldı. İsrail saldırmazlık anlaşmasını bozdu ve saldırıya geçti. Bunun üzerine Filistin anlaşmayı resmen feshettiğini duyurdu.

Oslo (2021) (Oslo) | tt11790674 Filmi Imdb'den 1500 kişi tarafından oylandı ve 6,5 puan aldı. Bu film için editör puanı %68 olarak belirlendi. İyi Seyirler!

Teknik Detaylar

Kod :
General
Unique ID                                : 234145038526154266653479176031625949977 (0xB026B1B0B74C8CEFE735021234463319)
Complete name                            : /home/TheSteel/Desktop/3/Oslo.2021.720p.WEB-DL.x264.TR.ENG.Filmbol.mkv
Format                                   : Matroska
Format version                           : Version 4
File size                                : 1.60 GiB
Duration                                 : 1 h 58 min
Overall bit rate                         : 1 940 kb/s
Movie name                               : Oslo - 2021 | Filmbol.org
Encoded date                             : UTC 2021-06-02 10:06:44
Writing application                      : mkvmerge v31.0.0 ('Dolores In A Shoestand') 64-bit
Writing library                          : libebml v1.3.6 + libmatroska v1.4.9

Video
ID                                       : 1
Format                                   : AVC
Format/Info                              : Advanced Video Codec
Format profile                           : [email protected]
Format settings                          : CABAC / 2 Ref Frames
Format settings, CABAC                   : Yes
Format settings, Reference frames        : 2 frames
Format settings, GOP                     : M=1, N=25
Codec ID                                 : V_MPEG4/ISO/AVC
Duration                                 : 1 h 58 min
Bit rate                                 : 1 553 kb/s
Width                                    : 1 280 pixels
Height                                   : 720 pixels
Display aspect ratio                     : 16:9
Frame rate mode                          : Constant
Frame rate                               : 23.976 (24000/1001) FPS
Color space                              : YUV
Chroma subsampling                       : 4:2:0
Bit depth                                : 8 bits
Scan type                                : Progressive
Bits/(Pixel*Frame)                       : 0.070
Stream size                              : 1.28 GiB (80%)
Title                                    : Oslo - 2021 | Filmbol.org
Default                                  : Yes
Forced                                   : No

Audio #1
ID                                       : 2
Format                                   : AC-3
Format/Info                              : Audio Coding 3
Commercial name                          : Dolby Digital
Codec ID                                 : A_AC3
Duration                                 : 1 h 57 min
Bit rate mode                            : Constant
Bit rate                                 : 192 kb/s
Channel(s)                               : 2 channels
Channel layout                           : L R
Sampling rate                            : 48.0 kHz
Frame rate                               : 31.250 FPS (1536 SPF)
Compression mode                         : Lossy
Stream size                              : 162 MiB (10%)
Title                                    : Oslo - 2021 | Filmbol.org
Language                                 : Turkish
Service kind                             : Complete Main
Default                                  : Yes
Forced                                   : No

Audio #2
ID                                       : 3
Format                                   : AC-3
Format/Info                              : Audio Coding 3
Commercial name                          : Dolby Digital
Codec ID                                 : A_AC3
Duration                                 : 1 h 58 min
Bit rate mode                            : Constant
Bit rate                                 : 192 kb/s
Channel(s)                               : 2 channels
Channel layout                           : L R
Sampling rate                            : 48.0 kHz
Frame rate                               : 31.250 FPS (1536 SPF)
Compression mode                         : Lossy
Stream size                              : 162 MiB (10%)
Title                                    : Oslo - 2021 | Filmbol.org
Language                                 : English
Service kind                             : Complete Main
Default                                  : No
Forced                                   : No

Text
ID                                       : 4
Format                                   : UTF-8
Codec ID                                 : S_TEXT/UTF8
Codec ID/Info                            : UTF-8 Plain Text
Duration                                 : 1 h 52 min
Bit rate                                 : 57 b/s
Count of elements                        : 1179
Stream size                              : 47.2 KiB (0%)
Title                                    : Oslo - 2021 | Filmbol.org
Language                                 : Turkish
Default                                  : No
Forced                                   : No

Film Detayları


 Oslo

 Oslo

 Oslo


Film Fragmanı


Film Detayları

Uptobox ile indir

1Fichier ile indir

1Fichier'den İndiremiyor musun? Tıklayın!


Mega linki şuan da gizli. Kullanıma açmak için konuya yorum yapın ve ardından sayfayı yenileyin.

Mega


Bunun için üzgünüz ancak, bu linke sadece premium üyeler erişebilir.

Filmbol Cloud







Hızlı Menü: