Filmbol Forum Film İndir FHD - FULL HD v Fakir: Bir Hint Fakiri'nin Olağanüstü Yolculuğu (The Extraordinary Journey of the Fakir) - 2018 - TR+ORG - FHD - x264 | tt5371168

Premium Üyelik Al

Bildirimi Kapat
Mega linklerinin şikayet edilmemesi için global erişime kapatıp sadece yorum yapanlara açıyoruz. Bu linkleri gizleme işlemini mecburen yapıyoruz ve yorum yapmanızın siteye değil size faydası vardır. Teşekkürler yazmayı çok görüp, Random/Spam/Anlamsız mesajlar atarak forumu kirletip Mega linklerini açmaya çalışan kullanıcılara süresiz ban atacağız.


Fakir: Bir Hint Fakiri'nin Olağanüstü Yolculuğu (The Extraordinary Journey of the Fakir) - 2018 - TR+ORG - FHD - x264 | tt5371168
BroserBros
Fakir: Bir Hint Fakiri'nin Olağanüstü Yolculuğu (The Extraordinary Journey of the Fakir) - 2018 - TR+ORG - FHD - x264 | tt5371168
0
2
  • Derecelendirme: 0/5 - 0 oy
  • 1
  • 2
  • 3
  • 4
  • 5
Konuyu Okuyanlar:1 Ziyaretçi
Şuan Online!
Filmin Yayınlanma Tarihi: 2018 
WWW
Şuan Online!
BroserBros Kurucu Admin
*******
Admin



 Fakir: Bir Hint Fakiri'nin Olağanüstü Yolculuğu



Fakir: Bir Hint Fakiri’nin Olağanüstü Yolculuğu, hiç tanımadığı babasını bulmak için yola koyulan Aja’nın maceralarını anlatıyor. Hint Fakiri Aja, annesinin ölümünün ardından yapayalnız kalmıştır. Babasını tanımayan Aja, onu bulmaya karar verir ve bunun için Fransa’ya gider. Babasını bulmak için çıktığı bu yolculuk Aja’nın hiç de düşlediği gibi gitmez. Paris’te taksiye binen Aja gitmek istediği yer yerine kendisini şehir dışındaki İKEA’da bulur. Bu sırada da Marie isimli bir kıza aşık olmuştur. Aja, İKEA’da yanlışlıkla bir dolabın içinde kalıp kargolanınca bu sefer de kendisini Avrupa’da başka bir şehirde bulur. Yol boyunca birçok yere savrulan Aja, Paris’e geri dönüp sevdiği kız Marie’ye kavuşup babasını bulabilecek midir?

Fakir: Bir Hint Fakiri'nin Olağanüstü Yolculuğu (2018) (The Extraordinary Journey of the Fakir) | tt5371168 Filmi Imdb'den 7,000 kişi tarafından oylandı ve 6,9 puan aldı. Bu film için editör puanı %71 olarak belirlendi. İyi Seyirler!

Teknik Detaylar

Kod :
General
Unique ID                                : 87116760766740275624495256920698131921 (0x418A13EC224BCA43075D368B5C6415D1)
Complete name                            : /home/BroserBros/Desktop/8/Fakir.Bir.Hintlinin.Olaganüstü.Yolculuğu.2018.FHD.BluRay.x264.TR.ENG.Filmbol.mkv
Format                                   : Matroska
Format version                           : Version 4
File size                                : 8.37 GiB
Duration                                 : 1 h 35 min
Overall bit rate mode                    : Variable
Overall bit rate                         : 12.5 Mb/s
Movie name                               : Fakir: Bir Hint Fakiri'nin Olağanüstü Yolculuğu - The Extraordinary Journey of the Fakir - 2018 | Filmbol.org
Encoded date                             : UTC 2021-06-07 16:36:12
Writing application                      : mkvmerge v53.0.0 ('Fool's Gold') 64-bit
Writing library                          : libebml v1.4.1 + libmatroska v1.6.2

Video
ID                                       : 1
Format                                   : AVC
Format/Info                              : Advanced Video Codec
Format profile                           : [email protected]
Format settings                          : CABAC / 5 Ref Frames
Format settings, CABAC                   : Yes
Format settings, Reference frames        : 5 frames
Codec ID                                 : V_MPEG4/ISO/AVC
Duration                                 : 1 h 35 min
Bit rate                                 : 10.2 Mb/s
Width                                    : 1 920 pixels
Height                                   : 800 pixels
Display aspect ratio                     : 2.40:1
Frame rate mode                          : Constant
Frame rate                               : 24.000 FPS
Color space                              : YUV
Chroma subsampling                       : 4:2:0
Bit depth                                : 8 bits
Scan type                                : Progressive
Bits/(Pixel*Frame)                       : 0.277
Stream size                              : 6.83 GiB (82%)
Title                                    : FHD - Filmbol.org
Writing library                          : x264 core 152 r2851 ba24899
Encoding settings                        : cabac=1 / ref=5 / deblock=1:-3:-3 / analyse=0x3:0x133 / me=umh / subme=11 / psy=1 / psy_rd=1.02:0.00 / mixed_ref=1 / me_range=32 / chroma_me=1 / trellis=2 / 8x8dct=1 / cqm=0 / deadzone=21,11 / fast_pskip=0 / chroma_qp_offset=-2 / threads=25 / lookahead_threads=4 / sliced_threads=0 / nr=0 / decimate=1 / interlaced=0 / bluray_compat=0 / constrained_intra=0 / bframes=8 / b_pyramid=2 / b_adapt=2 / b_bias=0 / direct=3 / weightb=1 / open_gop=0 / weightp=2 / keyint=250 / keyint_min=24 / scenecut=40 / intra_refresh=0 / rc_lookahead=60 / rc=crf / mbtree=0 / crf=19.0 / qcomp=0.63 / qpmin=0 / qpmax=69 / qpstep=4 / vbv_maxrate=62500 / vbv_bufsize=78125 / crf_max=0.0 / nal_hrd=none / filler=0 / ip_ratio=1.30 / pb_ratio=1.20 / aq=3:0.84
Language                                 : English
Default                                  : Yes
Forced                                   : No
Color range                              : Limited
Color primaries                          : BT.709
Transfer characteristics                 : BT.709
Matrix coefficients                      : BT.709

Audio #1
ID                                       : 2
Format                                   : AC-3
Format/Info                              : Audio Coding 3
Commercial name                          : Dolby Digital
Codec ID                                 : A_AC3
Duration                                 : 1 h 32 min
Bit rate mode                            : Constant
Bit rate                                 : 192 kb/s
Channel(s)                               : 2 channels
Channel layout                           : L R
Sampling rate                            : 48.0 kHz
Frame rate                               : 31.250 FPS (1536 SPF)
Compression mode                         : Lossy
Stream size                              : 127 MiB (1%)
Title                                    : Türkçe - Filmbol.org
Language                                 : Turkish
Service kind                             : Complete Main
Default                                  : Yes
Forced                                   : No

Audio #2
ID                                       : 3
Format                                   : DTS XLL
Format/Info                              : Digital Theater Systems
Commercial name                          : DTS-HD Master Audio
Codec ID                                 : A_DTS
Duration                                 : 1 h 35 min
Bit rate mode                            : Variable
Bit rate                                 : 2 108 kb/s
Channel(s)                               : 6 channels
Channel layout                           : C L R Ls Rs LFE
Sampling rate                            : 48.0 kHz
Frame rate                               : 93.750 FPS (512 SPF)
Bit depth                                : 16 bits
Compression mode                         : Lossless
Stream size                              : 1.41 GiB (17%)
Title                                    : Orijinal Dil - Filmbol.org
Language                                 : English
Default                                  : No
Forced                                   : No

Text
ID                                       : 4
Format                                   : UTF-8
Codec ID                                 : S_TEXT/UTF8
Codec ID/Info                            : UTF-8 Plain Text
Duration                                 : 1 h 27 min
Bit rate                                 : 51 b/s
Count of elements                        : 1094
Stream size                              : 33.3 KiB (0%)
Title                                    : Türkçe - Filmbol.org
Language                                 : Turkish
Default                                  : No
Forced                                   : No

Film Detayları


 Fakir: Bir Hint Fakiri'nin Olağanüstü Yolculuğu

 Fakir: Bir Hint Fakiri'nin Olağanüstü Yolculuğu

 Fakir: Bir Hint Fakiri'nin Olağanüstü Yolculuğu


Film Fragmanı


Film Detayları

Mega linki şuan da gizli. Kullanıma açmak için konuya yorum yapın ve ardından sayfayı yenileyin.

Mega


Bunun için üzgünüz ancak, bu linke sadece premium üyeler erişebilir.

Filmbol Cloud







Hızlı Menü: