⤤ Premium'a Yükselt
Filmbol Forum Film İndir 1080P v Fakir: Bir Hint Fakiri'nin Olağanüstü Yolculuğu (The Extraordinary Journey of the Fakir) - 2018 - TR+ORG - 1080P | tt5371168

Filmbol TV kullanıma açıldı. Bu adresten giriş yapabilirsin: Giriş





Fakir: Bir Hint Fakiri'nin Olağanüstü Yolculuğu (The Extraordinary Journey of the Fakir) - 2018 - TR+ORG - 1080P | tt5371168
BroserBros
Fakir: Bir Hint Fakiri'nin Olağanüstü Yolculuğu (The Extraordinary Journey of the Fakir) - 2018 - TR+ORG - 1080P | tt5371168
4
644
  • Derecelendirme: 0/5 - 0 oy
  • 1
  • 2
  • 3
  • 4
  • 5
Konuyu Okuyanlar:1 Ziyaretçi
Şuan Online!
WWW
Rapor Et!
Şuan Online!
BroserBros Kurucu Admin
*******
Admin



 Fakir: Bir Hint Fakiri'nin Olağanüstü Yolculuğu



Fakir: Bir Hint Fakiri’nin Olağanüstü Yolculuğu, hiç tanımadığı babasını bulmak için yola koyulan Aja’nın maceralarını anlatıyor. Hint Fakiri Aja, annesinin ölümünün ardından yapayalnız kalmıştır. Babasını tanımayan Aja, onu bulmaya karar verir ve bunun için Fransa’ya gider. Babasını bulmak için çıktığı bu yolculuk Aja’nın hiç de düşlediği gibi gitmez. Paris’te taksiye binen Aja gitmek istediği yer yerine kendisini şehir dışındaki İKEA’da bulur. Bu sırada da Marie isimli bir kıza aşık olmuştur. Aja, İKEA’da yanlışlıkla bir dolabın içinde kalıp kargolanınca bu sefer de kendisini Avrupa’da başka bir şehirde bulur. Yol boyunca birçok yere savrulan Aja, Paris’e geri dönüp sevdiği kız Marie’ye kavuşup babasını bulabilecek midir?

Fakir: Bir Hint Fakiri'nin Olağanüstü Yolculuğu (2018) (The Extraordinary Journey of the Fakir) | tt5371168 Filmi Imdb'den 7,000 kişi tarafından oylandı ve 6,9 puan aldı. Bu film için editör puanı %71 olarak belirlendi. İyi Seyirler!

Teknik Detaylar

Kod :
General
Unique ID                                : 70919816318714764162149068065936642015 (0x355AA8E7FD16AFD1BD70552F4A4A0FDF)
Complete name                            : /home/BroserBros/Desktop/8/Fakir.Bir.Hintlinin.Olaganüstü.Yolculuğu.2018.1080p.BluRay.x264.TR.ENG.Filmbol.mkv
Format                                   : Matroska
Format version                           : Version 4
File size                                : 1.66 GiB
Duration                                 : 1 h 35 min
Overall bit rate                         : 2 482 kb/s
Movie name                               : Fakir: Bir Hint Fakiri'nin Olağanüstü Yolculuğu - The Extraordinary Journey of the Fakir - 2018 | Filmbol.org
Encoded date                             : UTC 2021-06-07 16:34:24
Writing application                      : mkvmerge v53.0.0 ('Fool's Gold') 64-bit
Writing library                          : libebml v1.4.1 + libmatroska v1.6.2

Video
ID                                       : 1
Format                                   : AVC
Format/Info                              : Advanced Video Codec
Format profile                           : [email protected]
Format settings                          : CABAC / 4 Ref Frames
Format settings, CABAC                   : Yes
Format settings, Reference frames        : 4 frames
Codec ID                                 : V_MPEG4/ISO/AVC
Duration                                 : 1 h 35 min
Bit rate                                 : 2 150 kb/s
Width                                    : 1 920 pixels
Height                                   : 800 pixels
Display aspect ratio                     : 2.40:1
Frame rate mode                          : Constant
Frame rate                               : 24.000 FPS
Color space                              : YUV
Chroma subsampling                       : 4:2:0
Bit depth                                : 8 bits
Scan type                                : Progressive
Bits/(Pixel*Frame)                       : 0.058
Stream size                              : 1.44 GiB (87%)
Title                                    : 1080P - Filmbol.org
Writing library                          : x264 core 155
Encoding settings                        : cabac=1 / ref=4 / deblock=1:-1:-1 / analyse=0x3:0x133 / me=umh / subme=9 / psy=1 / psy_rd=1.00:0.15 / mixed_ref=1 / me_range=24 / chroma_me=1 / trellis=2 / 8x8dct=1 / cqm=0 / deadzone=21,11 / fast_pskip=0 / chroma_qp_offset=-3 / threads=18 / lookahead_threads=1 / sliced_threads=0 / nr=0 / decimate=1 / interlaced=0 / bluray_compat=0 / constrained_intra=0 / bframes=3 / b_pyramid=2 / b_adapt=2 / b_bias=0 / direct=3 / weightb=1 / open_gop=0 / weightp=2 / keyint=250 / keyint_min=23 / scenecut=40 / intra_refresh=0 / rc_lookahead=60 / rc=2pass / mbtree=1 / bitrate=2150 / ratetol=1.0 / qcomp=0.60 / qpmin=0 / qpmax=69 / qpstep=4 / cplxblur=20.0 / qblur=0.5 / vbv_maxrate=31250 / vbv_bufsize=31250 / nal_hrd=none / filler=0 / ip_ratio=1.40 / aq=1:1.00
Default                                  : Yes
Forced                                   : No

Audio #1
ID                                       : 2
Format                                   : AC-3
Format/Info                              : Audio Coding 3
Commercial name                          : Dolby Digital
Codec ID                                 : A_AC3
Duration                                 : 1 h 32 min
Bit rate mode                            : Constant
Bit rate                                 : 192 kb/s
Channel(s)                               : 2 channels
Channel layout                           : L R
Sampling rate                            : 48.0 kHz
Frame rate                               : 31.250 FPS (1536 SPF)
Compression mode                         : Lossy
Stream size                              : 127 MiB (7%)
Title                                    : Türkçe - Filmbol.org
Language                                 : Turkish
Service kind                             : Complete Main
Default                                  : Yes
Forced                                   : No

Audio #2
ID                                       : 3
Format                                   : AAC LC
Format/Info                              : Advanced Audio Codec Low Complexity
Codec ID                                 : A_AAC-2
Duration                                 : 1 h 35 min
Bit rate                                 : 144 kb/s
Channel(s)                               : 2 channels
Channel layout                           : L R
Sampling rate                            : 48.0 kHz
Frame rate                               : 46.875 FPS (1024 SPF)
Compression mode                         : Lossy
Stream size                              : 99.2 MiB (6%)
Title                                    : Orijinal Dil - Filmbol.org
Language                                 : English
Default                                  : No
Forced                                   : No

Text
ID                                       : 4
Format                                   : UTF-8
Codec ID                                 : S_TEXT/UTF8
Codec ID/Info                            : UTF-8 Plain Text
Duration                                 : 1 h 27 min
Bit rate                                 : 51 b/s
Count of elements                        : 1094
Stream size                              : 33.3 KiB (0%)
Title                                    : Türkçe - Filmbol.org
Language                                 : Turkish
Default                                  : No
Forced                                   : No

Film Detayları


 Fakir: Bir Hint Fakiri'nin Olağanüstü Yolculuğu

 Fakir: Bir Hint Fakiri'nin Olağanüstü Yolculuğu

 Fakir: Bir Hint Fakiri'nin Olağanüstü Yolculuğu


Film Fragmanı


Film İndir


Rar Şifresi: filmbol.org


Uptobox ile indir

1Fichier ile indir

1Fichier'den İndiremiyor musun? Tıklayın!












Şuan Offine!
Rapor Et!
Şuan Offine!
tolga00 Uzman Üye
**
Uzman Üye
  • Konular0
  • Mesajlar8
  • Rep puanı 0
astalavista baby
Şuan Online!
Rapor Et!
Şuan Online!
BroserBros Kurucu Admin
*******
Admin
08.06.2021 Yönetici Notu:

Kırık linkler kontrol edildi, kaldırıldı ve yenilendi. Tüm linkler tamamen çalışır durumda.
Şuan Offine!
Rapor Et!
Şuan Offine!
xplood67 Üye
*
Üye
  • Konular0
  • Mesajlar35
  • Rep puanı 0
Teşekkürler.
Şuan Offine!
Rapor Et!
Şuan Offine!
mahmut9935 Üye
*
Üye
  • Konular0
  • Mesajlar35
  • Rep puanı 0
Teşekkürler.


Hızlı Menü: