⤤ Premium'a Yükselt

Merhaba, Ziyaretçi. Mega linklerinin bir kısmı deaktif halde ve yenileme çalışmalarına başladık. Bu süre içinde ikinci duyuruya kadar mega linklerini raporlamayın!! x

Filmbol Forum Film İndir BRRip XviD v Fakir: Bir Hint Fakiri'nin Olağanüstü Yolculuğu (The Extraordinary Journey of the Fakir) - 2018 - TR - BRRip XviD | tt5371168

Filmbol TV kullanıma açıldı. Bu adresten giriş yapabilirsin: Giriş





Fakir: Bir Hint Fakiri'nin Olağanüstü Yolculuğu (The Extraordinary Journey of the Fakir) - 2018 - TR - BRRip XviD | tt5371168
BroserBros
Fakir: Bir Hint Fakiri'nin Olağanüstü Yolculuğu (The Extraordinary Journey of the Fakir) - 2018 - TR - BRRip XviD | tt5371168
1
443
  • Derecelendirme: 0/5 - 0 oy
  • 1
  • 2
  • 3
  • 4
  • 5
Konuyu Okuyanlar:2 Ziyaretçi
Şuan Online!
Filmin Yayınlanma Tarihi: 2018 
WWW
Rapor Et!
Şuan Online!
BroserBros Kurucu Admin
*******
Admin



 Fakir: Bir Hint Fakiri'nin Olağanüstü Yolculuğu



Fakir: Bir Hint Fakiri’nin Olağanüstü Yolculuğu, hiç tanımadığı babasını bulmak için yola koyulan Aja’nın maceralarını anlatıyor. Hint Fakiri Aja, annesinin ölümünün ardından yapayalnız kalmıştır. Babasını tanımayan Aja, onu bulmaya karar verir ve bunun için Fransa’ya gider. Babasını bulmak için çıktığı bu yolculuk Aja’nın hiç de düşlediği gibi gitmez. Paris’te taksiye binen Aja gitmek istediği yer yerine kendisini şehir dışındaki İKEA’da bulur. Bu sırada da Marie isimli bir kıza aşık olmuştur. Aja, İKEA’da yanlışlıkla bir dolabın içinde kalıp kargolanınca bu sefer de kendisini Avrupa’da başka bir şehirde bulur. Yol boyunca birçok yere savrulan Aja, Paris’e geri dönüp sevdiği kız Marie’ye kavuşup babasını bulabilecek midir?

Fakir: Bir Hint Fakiri'nin Olağanüstü Yolculuğu (2018) (The Extraordinary Journey of the Fakir) | tt5371168 Filmi Imdb'den 7,000 kişi tarafından oylandı ve 6,9 puan aldı. Bu film için editör puanı %71 olarak belirlendi. İyi Seyirler!

Teknik Detaylar

Kod :
General
Unique ID                                : 58931750186880555236031461871528584513 (0x2C55D79CC765DC5F8D12B05F417E2541)
Complete name                            : /home/BroserBros/Desktop/8/Fakir.Bir.Hintlinin.Olaganüstü.Yolculuğu.2018.BRRip.XviD.TR.Filmbol.avi
Format                                   : Matroska
Format version                           : Version 4
File size                                : 1.19 GiB
Duration                                 : 1 h 35 min
Overall bit rate                         : 1 782 kb/s
Movie name                               : Fakir: Bir Hint Fakiri'nin Olağanüstü Yolculuğu - The Extraordinary Journey of the Fakir - 2018 | Filmbol.org
Encoded date                             : UTC 2021-06-07 18:22:33
Writing application                      : mkvmerge v53.0.0 ('Fool's Gold') 64-bit
Writing library                          : libebml v1.4.1 + libmatroska v1.6.2
FileExtension_Invalid                    : mkv mk3d mka mks

Video
ID                                       : 1
Format                                   : MPEG-4 Visual
Format profile                           : [email protected]
Format settings, BVOP                    : No
Format settings, QPel                    : No
Format settings, GMC                     : No warppoints
Format settings, Matrix                  : Default (H.263)
Codec ID                                 : V_MS/VFW/FOURCC / XVID
Codec ID/Hint                            : XviD
Duration                                 : 1 h 35 min
Bit rate                                 : 1 595 kb/s
Width                                    : 720 pixels
Height                                   : 302 pixels
Display aspect ratio                     : 2.40:1
Frame rate mode                          : Constant
Frame rate                               : 24.000 FPS
Color space                              : YUV
Chroma subsampling                       : 4:2:0
Bit depth                                : 8 bits
Scan type                                : Progressive
Compression mode                         : Lossy
Bits/(Pixel*Frame)                       : 0.306
Stream size                              : 1.07 GiB (89%)
Title                                    : Fakir: Bir Hint Fakiri'nin Olağanüstü Yolculuğu - The Extraordinary Journey of the Fakir - 2018 | Filmbol.org
Writing library                          : Lavc58.18.100
Default                                  : Yes
Forced                                   : No

Audio
ID                                       : 2
Format                                   : AC-3
Format/Info                              : Audio Coding 3
Commercial name                          : Dolby Digital
Codec ID                                 : A_AC3
Duration                                 : 1 h 32 min
Bit rate mode                            : Constant
Bit rate                                 : 192 kb/s
Channel(s)                               : 2 channels
Channel layout                           : L R
Sampling rate                            : 48.0 kHz
Frame rate                               : 31.250 FPS (1536 SPF)
Compression mode                         : Lossy
Stream size                              : 127 MiB (10%)
Title                                    : Fakir: Bir Hint Fakiri'nin Olağanüstü Yolculuğu - The Extraordinary Journey of the Fakir - 2018 | Filmbol.org
Language                                 : Turkish
Service kind                             : Complete Main
Default                                  : Yes
Forced                                   : No

Film Detayları


 Fakir: Bir Hint Fakiri'nin Olağanüstü Yolculuğu

 Fakir: Bir Hint Fakiri'nin Olağanüstü Yolculuğu

 Fakir: Bir Hint Fakiri'nin Olağanüstü Yolculuğu


Film Fragmanı


Film İndir


Rar Şifresi: filmbol.org



Uptobox ile indir

1Fichier ile indir

1Fichier'den İndiremiyor musun? Tıklayın!












Şuan Online!
Rapor Et!
Şuan Online!
BroserBros Kurucu Admin
*******
Admin
08.06.2021 Yönetici Notu:

Kırık linkler kontrol edildi, kaldırıldı ve yenilendi. Tüm linkler tamamen çalışır durumda.


Hızlı Menü: