Filmbol Forum Film İndir FHD - FULL HD v Oyun Gecesi (Game Night) - 2018 - TR+ORG - FHD - x264 | tt2704998
Bildirimi Kapat
Merhaba , site giderlerini bir nebze olsun karşılamak adına link kısaltma servisleri kullanmaya başladık. İndirme linkleri sizi ouo.io adresinde yönlendirecek, 3 saniye geçtikten sonra Get Link butonuna tıklayarak linke ulaşacaksınız. Premium üyeler bu durumdan etkilenmeyecektir.


Premium Üyelik Al

Oyun Gecesi (Game Night) - 2018 - TR+ORG - FHD - x264 | tt2704998
BroserBros
Oyun Gecesi (Game Night) - 2018 - TR+ORG - FHD - x264 | tt2704998
0
22
  • Derecelendirme: 0/5 - 0 oy
  • 1
  • 2
  • 3
  • 4
  • 5
Konuyu Okuyanlar:2 Ziyaretçi
Şuan Online!
Filmin Yayınlanma Tarihi: 2018 
Şuan Online!
BroserBros Kurucu Admin
*******
Admin


 Oyun Gecesi



Max ve Annie’nin çiftler için oyun gecesi, Max’in kardeşi Brooks sahte haydutlar ve federal ajanların olduğu gizemli bir cinayet ayarladığında iyice karışır. Brooks kaçırılır ve her şey oyunun bir parçası gibi görünür. Fakat bu altı aşırı rekabetçi oyuncu gizemi çözmeye ve oyunu kazanmaya çalıştıkça bu “oyunun” ve Brooks’un göründüğü gibi olmadığını fark ederler. Bu kaotik gece boyunca, her dönemeç beklenmedik bir olaya yol açtıkça arkadaş grubu boylarından büyük bir işe kalkıştıklarını fark eder. Kuralların ve puanların olmadığı, oyuncuların kimler olduğu bilinmeyen bu gece ya uzun süredir yaşadıkları en eğlenceli gece ya da oyunun sonu olacaktır.

Oyun Gecesi (2018) (Game Night) | tt2704998 Filmi Imdb'den 220,000 kişi tarafından oylandı ve 6,9 puan aldı. Bu film için editör puanı %78 olarak belirlendi. İyi Seyirler!

Teknik Detaylar

Kod :
General
Unique ID                                : 31182675392336874132346860170084059016 (0x17759098986B7028DBD9678256678788)
Complete name                            : /home/BroserBros/Desktop/4/Oyun.Gecesi.2018.FHD.BluRay.x264.TR.ENG.Filmbol.mkv
Format                                   : Matroska
Format version                           : Version 4
File size                                : 8.34 GiB
Duration                                 : 1 h 40 min
Overall bit rate                         : 11.9 Mb/s
Movie name                               : Oyun Gecesi - Game Night - 2018 | Filmbol.org
Encoded date                             : UTC 2021-06-04 15:04:38
Writing application                      : mkvmerge v53.0.0 ('Fool's Gold') 64-bit
Writing library                          : libebml v1.4.1 + libmatroska v1.6.2

Video
ID                                       : 1
Format                                   : AVC
Format/Info                              : Advanced Video Codec
Format profile                           : [email protected]
Format settings                          : CABAC / 3 Ref Frames
Format settings, CABAC                   : Yes
Format settings, Reference frames        : 3 frames
Codec ID                                 : V_MPEG4/ISO/AVC
Duration                                 : 1 h 40 min
Bit rate                                 : 10.2 Mb/s
Width                                    : 1 920 pixels
Height                                   : 800 pixels
Display aspect ratio                     : 2.40:1
Frame rate mode                          : Constant
Frame rate                               : 23.976 (24000/1001) FPS
Color space                              : YUV
Chroma subsampling                       : 4:2:0
Bit depth                                : 8 bits
Scan type                                : Progressive
Bits/(Pixel*Frame)                       : 0.278
Stream size                              : 7.15 GiB (86%)
Title                                    : FHD - Filmbol.org
Writing library                          : x264 core 148
Encoding settings                        : cabac=1 / ref=3 / deblock=1:-1:-1 / analyse=0x3:0 / me=hex / subme=5 / psy=1 / psy_rd=1.00:0.00 / mixed_ref=0 / me_range=16 / chroma_me=1 / trellis=1 / 8x8dct=1 / cqm=0 / deadzone=21,11 / fast_pskip=0 / chroma_qp_offset=0 / threads=8 / lookahead_threads=2 / sliced_threads=0 / nr=0 / decimate=1 / interlaced=0 / bluray_compat=0 / constrained_intra=0 / bframes=2 / b_pyramid=0 / b_adapt=1 / b_bias=0 / direct=1 / weightb=0 / open_gop=0 / weightp=0 / keyint=24 / keyint_min=2 / scenecut=40 / intra_refresh=0 / rc=2pass / mbtree=0 / bitrate=10238 / ratetol=1.0 / qcomp=0.60 / qpmin=0 / qpmax=69 / qpstep=4 / cplxblur=20.0 / qblur=0.5 / ip_ratio=1.40 / pb_ratio=1.30 / aq=1:1.00
Default                                  : Yes
Forced                                   : No
Color range                              : Limited
Color primaries                          : BT.709
Transfer characteristics                 : BT.709
Matrix coefficients                      : BT.709

Audio #1
ID                                       : 2
Format                                   : AC-3
Format/Info                              : Audio Coding 3
Commercial name                          : Dolby Digital
Codec ID                                 : A_AC3
Duration                                 : 1 h 40 min
Bit rate mode                            : Constant
Bit rate                                 : 192 kb/s
Channel(s)                               : 2 channels
Channel layout                           : L R
Sampling rate                            : 48.0 kHz
Frame rate                               : 31.250 FPS (1536 SPF)
Compression mode                         : Lossy
Delay relative to video                  : 2 s 0 ms
Stream size                              : 137 MiB (2%)
Title                                    : Türkçe - Filmbol.org
Language                                 : Turkish
Service kind                             : Complete Main
Default                                  : Yes
Forced                                   : No

Audio #2
ID                                       : 3
Format                                   : DTS
Format/Info                              : Digital Theater Systems
Codec ID                                 : A_DTS
Duration                                 : 1 h 40 min
Bit rate mode                            : Constant
Bit rate                                 : 1 509 kb/s
Channel(s)                               : 6 channels
Channel layout                           : C L R Ls Rs LFE
Sampling rate                            : 48.0 kHz
Frame rate                               : 93.750 FPS (512 SPF)
Bit depth                                : 24 bits
Compression mode                         : Lossy
Stream size                              : 1.06 GiB (13%)
Title                                    : Orijinal Dil - Filmbol.org
Language                                 : English
Default                                  : No
Forced                                   : No

Text #1
ID                                       : 4
Format                                   : UTF-8
Codec ID                                 : S_TEXT/UTF8
Codec ID/Info                            : UTF-8 Plain Text
Duration                                 : 1 h 39 min
Bit rate                                 : 100 b/s
Count of elements                        : 1501
Stream size                              : 73.2 KiB (0%)
Title                                    : Türkçe - Filmbol.org
Language                                 : Turkish
Default                                  : No
Forced                                   : No

Text #2
ID                                       : 5
Format                                   : UTF-8
Codec ID                                 : S_TEXT/UTF8
Codec ID/Info                            : UTF-8 Plain Text
Duration                                 : 1 h 39 min
Bit rate                                 : 96 b/s
Count of elements                        : 2205
Stream size                              : 70.2 KiB (0%)
Title                                    : Orijinal Dil - Filmbol.org
Language                                 : English
Default                                  : No
Forced                                   : No

Film Detayları


 Oyun Gecesi

 Oyun Gecesi

 Oyun Gecesi


Film Fragmanı


Film Detayları



Zip Şifresi: filmbol.org Aşağıdaki butona tıklayarak kopyalabilirsiniz.

Mega linkiniz:








Bunun için üzgünüz ancak, bu linke sadece premium üyeler erişebilir.

Filmbol Cloud





WWW


Hızlı Menü: