⤤ Premium'a Yükselt
Filmbol Forum Film İndir 1080P v Oyun Gecesi (Game Night) - 2018 - TR+ORG - 1080P | tt2704998

Filmbol TV kullanıma açıldı. Bu adresten giriş yapabilirsin: Giriş





Oyun Gecesi (Game Night) - 2018 - TR+ORG - 1080P | tt2704998
BroserBros
Oyun Gecesi (Game Night) - 2018 - TR+ORG - 1080P | tt2704998
10
993
  • Derecelendirme: 0/5 - 0 oy
  • 1
  • 2
  • 3
  • 4
  • 5
Konuyu Okuyanlar:3 Ziyaretçi
Şuan Online!
Filmin Yayınlanma Tarihi: 2018 
WWW
Rapor Et!
Şuan Online!
BroserBros Kurucu Admin
*******
Admin



 Oyun Gecesi



Max ve Annie’nin çiftler için oyun gecesi, Max’in kardeşi Brooks sahte haydutlar ve federal ajanların olduğu gizemli bir cinayet ayarladığında iyice karışır. Brooks kaçırılır ve her şey oyunun bir parçası gibi görünür. Fakat bu altı aşırı rekabetçi oyuncu gizemi çözmeye ve oyunu kazanmaya çalıştıkça bu “oyunun” ve Brooks’un göründüğü gibi olmadığını fark ederler. Bu kaotik gece boyunca, her dönemeç beklenmedik bir olaya yol açtıkça arkadaş grubu boylarından büyük bir işe kalkıştıklarını fark eder. Kuralların ve puanların olmadığı, oyuncuların kimler olduğu bilinmeyen bu gece ya uzun süredir yaşadıkları en eğlenceli gece ya da oyunun sonu olacaktır.

Oyun Gecesi (2018) (Game Night) | tt2704998 Filmi Imdb'den 220,000 kişi tarafından oylandı ve 6,9 puan aldı. Bu film için editör puanı %78 olarak belirlendi. İyi Seyirler!

Teknik Detaylar

Kod :
General
Unique ID                                : 76076460219217511801513610930868958708 (0x393BCB146486622BC86D66ACB177B5F4)
Complete name                            : /home/BroserBros/Desktop/4/Oyun.Gecesi.2018.1080p.BluRay.x264.TR.ENG.Filmbol.mkv
Format                                   : Matroska
Format version                           : Version 4
File size                                : 1.73 GiB
Duration                                 : 1 h 40 min
Overall bit rate                         : 2 479 kb/s
Movie name                               : Oyun Gecesi - Game Night - 2018 | Filmbol.org
Encoded date                             : UTC 2021-06-04 15:02:11
Writing application                      : mkvmerge v53.0.0 ('Fool's Gold') 64-bit
Writing library                          : libebml v1.4.1 + libmatroska v1.6.2

Video
ID                                       : 1
Format                                   : AVC
Format/Info                              : Advanced Video Codec
Format profile                           : [email protected]
Format settings                          : CABAC / 4 Ref Frames
Format settings, CABAC                   : Yes
Format settings, Reference frames        : 4 frames
Codec ID                                 : V_MPEG4/ISO/AVC
Duration                                 : 1 h 40 min
Bit rate                                 : 2 150 kb/s
Width                                    : 1 920 pixels
Height                                   : 800 pixels
Display aspect ratio                     : 2.40:1
Frame rate mode                          : Constant
Frame rate                               : 23.976 (24000/1001) FPS
Color space                              : YUV
Chroma subsampling                       : 4:2:0
Bit depth                                : 8 bits
Scan type                                : Progressive
Bits/(Pixel*Frame)                       : 0.058
Stream size                              : 1.50 GiB (87%)
Title                                    : 1080P - Filmbol.org
Writing library                          : x264 core 152
Encoding settings                        : cabac=1 / ref=4 / deblock=1:-1:-1 / analyse=0x3:0x133 / me=umh / subme=9 / psy=1 / psy_rd=1.00:0.15 / mixed_ref=1 / me_range=24 / chroma_me=1 / trellis=2 / 8x8dct=1 / cqm=0 / deadzone=21,11 / fast_pskip=0 / chroma_qp_offset=-3 / threads=12 / lookahead_threads=1 / sliced_threads=0 / nr=0 / decimate=1 / interlaced=0 / bluray_compat=0 / constrained_intra=0 / bframes=3 / b_pyramid=2 / b_adapt=2 / b_bias=0 / direct=3 / weightb=1 / open_gop=0 / weightp=2 / keyint=250 / keyint_min=23 / scenecut=40 / intra_refresh=0 / rc_lookahead=60 / rc=2pass / mbtree=1 / bitrate=2150 / ratetol=1.0 / qcomp=0.60 / qpmin=0 / qpmax=69 / qpstep=4 / cplxblur=20.0 / qblur=0.5 / vbv_maxrate=31250 / vbv_bufsize=31250 / nal_hrd=none / filler=0 / ip_ratio=1.40 / aq=1:1.00
Default                                  : Yes
Forced                                   : No

Audio #1
ID                                       : 2
Format                                   : AC-3
Format/Info                              : Audio Coding 3
Commercial name                          : Dolby Digital
Codec ID                                 : A_AC3
Duration                                 : 1 h 40 min
Bit rate mode                            : Constant
Bit rate                                 : 192 kb/s
Channel(s)                               : 2 channels
Channel layout                           : L R
Sampling rate                            : 48.0 kHz
Frame rate                               : 31.250 FPS (1536 SPF)
Compression mode                         : Lossy
Delay relative to video                  : 2 s 0 ms
Stream size                              : 137 MiB (8%)
Title                                    : Türkçe - Filmbol.org
Language                                 : Turkish
Service kind                             : Complete Main
Default                                  : Yes
Forced                                   : No

Audio #2
ID                                       : 3
Format                                   : AAC LC
Format/Info                              : Advanced Audio Codec Low Complexity
Codec ID                                 : A_AAC-2
Duration                                 : 1 h 40 min
Bit rate                                 : 132 kb/s
Channel(s)                               : 2 channels
Channel layout                           : L R
Sampling rate                            : 48.0 kHz
Frame rate                               : 46.875 FPS (1024 SPF)
Compression mode                         : Lossy
Stream size                              : 96.3 MiB (5%)
Title                                    : Orijinal Dil - Filmbol.org
Language                                 : English
Default                                  : No
Forced                                   : No

Text
ID                                       : 4
Format                                   : UTF-8
Codec ID                                 : S_TEXT/UTF8
Codec ID/Info                            : UTF-8 Plain Text
Duration                                 : 1 h 39 min
Bit rate                                 : 100 b/s
Count of elements                        : 1501
Stream size                              : 73.2 KiB (0%)
Title                                    : Türkçe - Filmbol.org
Language                                 : Turkish
Default                                  : No
Forced                                   : No

Film Detayları


 Oyun Gecesi

 Oyun Gecesi

 Oyun Gecesi


Film Fragmanı


Film İndir


Rar Şifresi: filmbol.org


Uptobox ile indir

1Fichier ile indir

1Fichier'den İndiremiyor musun? Tıklayın!












Şuan Offine!
Rapor Et!
Şuan Offine!
sadred Cezalı Üye
  • Konular0
  • Mesajlar6
sadsadasd
Şuan Offine!
Rapor Et!
Şuan Offine!
hakan8444 Uzman Üye
**
Uzman Üye
  • Konular0
  • Mesajlar11
  • Rep puanı 0
Teşekkürler.
Şuan Offine!
Rapor Et!
Şuan Offine!
Murat94 Süper Üye
***
Super Üye
  • Konular0
  • Mesajlar34
  • Rep puanı 0
Güzel
Şuan Offine!
Rapor Et!
Şuan Offine!
muda Uzman Üye
**
Uzman Üye
  • Konular0
  • Mesajlar7
  • Rep puanı 0
tşklr
Şuan Offine!
Rapor Et!
Şuan Offine!
Hknddlgl Üye
*
Üye
  • Konular0
  • Mesajlar3
  • Rep puanı 0
Teşekkürler
Şuan Online!
Rapor Et!
Şuan Online!
BroserBros Kurucu Admin
*******
Admin
05.06.2021 Yönetici Notu:

Kırık linkler kontrol edildi, kaldırıldı ve yenilendi. Tüm linkler tamamen çalışır durumda.
Şuan Offine!
Rapor Et!
Şuan Offine!
wintalker46 Uzman Üye
**
Uzman Üye
  • Konular0
  • Mesajlar314
  • Rep puanı 0
Teşekkürler.
Şuan Offine!
Rapor Et!
Şuan Offine!
trmntrmn Süper Üye
***
Super Üye
  • Konular0
  • Mesajlar802
  • Rep puanı 11
Teşekkürler.
Şuan Offine!
Rapor Et!
Şuan Offine!
askbocegi31 Üye
*
Üye
  • Konular0
  • Mesajlar100
  • Rep puanı 0
Teşekkürler.


Hızlı Menü: