⤤ Premium'a Yükselt
Filmbol Forum Film İndir BRRip XviD v Oyun Gecesi (Game Night) - 2018 - TR - BRRip XviD | tt2704998

Filmbol TV kullanıma açıldı. Bu adresten giriş yapabilirsin: Giriş





Oyun Gecesi (Game Night) - 2018 - TR - BRRip XviD | tt2704998
BroserBros
Oyun Gecesi (Game Night) - 2018 - TR - BRRip XviD | tt2704998
2
596
  • Derecelendirme: 0/5 - 0 oy
  • 1
  • 2
  • 3
  • 4
  • 5
Konuyu Okuyanlar:3 Ziyaretçi
Şuan Online!
Filmin Yayınlanma Tarihi: 2018 
WWW
Rapor Et!
Şuan Online!
BroserBros Kurucu Admin
*******
Admin



 Oyun Gecesi



Max ve Annie’nin çiftler için oyun gecesi, Max’in kardeşi Brooks sahte haydutlar ve federal ajanların olduğu gizemli bir cinayet ayarladığında iyice karışır. Brooks kaçırılır ve her şey oyunun bir parçası gibi görünür. Fakat bu altı aşırı rekabetçi oyuncu gizemi çözmeye ve oyunu kazanmaya çalıştıkça bu “oyunun” ve Brooks’un göründüğü gibi olmadığını fark ederler. Bu kaotik gece boyunca, her dönemeç beklenmedik bir olaya yol açtıkça arkadaş grubu boylarından büyük bir işe kalkıştıklarını fark eder. Kuralların ve puanların olmadığı, oyuncuların kimler olduğu bilinmeyen bu gece ya uzun süredir yaşadıkları en eğlenceli gece ya da oyunun sonu olacaktır.

Oyun Gecesi (2018) (Game Night) | tt2704998 Filmi Imdb'den 220,000 kişi tarafından oylandı ve 6,9 puan aldı. Bu film için editör puanı %78 olarak belirlendi. İyi Seyirler!

Teknik Detaylar

Kod :
General
Unique ID                                : 159953114330854573934024646078796573088 (0x7855D96905F8C17FD116AB870CBEA9A0)
Complete name                            : /home/BroserBros/Desktop/4/Oyun.Gecesi.2018.BRRip.XviD.TR.Filmbol.avi
Format                                   : Matroska
Format version                           : Version 4
File size                                : 1.18 GiB
Duration                                 : 1 h 40 min
Overall bit rate                         : 1 692 kb/s
Movie name                               : Oyun Gecesi - Game Night - 2018 | Filmbol.org
Encoded date                             : UTC 2021-06-04 15:13:07
Writing application                      : mkvmerge v53.0.0 ('Fool's Gold') 64-bit
Writing library                          : libebml v1.4.1 + libmatroska v1.6.2
FileExtension_Invalid                    : mkv mk3d mka mks

Video
ID                                       : 1
Format                                   : MPEG-4 Visual
Format profile                           : [email protected]
Format settings, BVOP                    : No
Format settings, QPel                    : No
Format settings, GMC                     : No warppoints
Format settings, Matrix                  : Default (H.263)
Codec ID                                 : V_MS/VFW/FOURCC / XVID
Codec ID/Hint                            : XviD
Duration                                 : 1 h 40 min
Bit rate                                 : 1 562 kb/s
Width                                    : 720 pixels
Height                                   : 302 pixels
Display aspect ratio                     : 2.40:1
Frame rate mode                          : Constant
Frame rate                               : 23.976 FPS
Color space                              : YUV
Chroma subsampling                       : 4:2:0
Bit depth                                : 8 bits
Scan type                                : Progressive
Compression mode                         : Lossy
Bits/(Pixel*Frame)                       : 0.300
Stream size                              : 1.09 GiB (92%)
Title                                    : Oyun Gecesi - Game Night - 2018 | Filmbol.org
Writing library                          : Lavc57.107.100
Default                                  : Yes
Forced                                   : No

Audio
ID                                       : 2
Format                                   : MPEG Audio
Format version                           : Version 1
Format profile                           : Layer 3
Format settings                          : Joint stereo / MS Stereo
Codec ID                                 : A_MPEG/L3
Codec ID/Hint                            : MP3
Duration                                 : 1 h 40 min
Bit rate mode                            : Constant
Bit rate                                 : 128 kb/s
Channel(s)                               : 2 channels
Sampling rate                            : 48.0 kHz
Frame rate                               : 41.667 FPS (1152 SPF)
Compression mode                         : Lossy
Stream size                              : 91.6 MiB (8%)
Title                                    : Oyun Gecesi - Game Night - 2018 | Filmbol.org
Writing library                          : LAME3.99.5
Default                                  : Yes
Forced                                   : No

Film Detayları


 Oyun Gecesi

 Oyun Gecesi

 Oyun Gecesi


Film Fragmanı


Film İndir


Rar Şifresi: filmbol.org



Uptobox ile indir

1Fichier ile indir

1Fichier'den İndiremiyor musun? Tıklayın!












Şuan Offine!
Rapor Et!
Şuan Offine!
komador06 Süper Üye
***
Super Üye
  • Konular0
  • Mesajlar27
  • Rep puanı 0
teşekkürler..
Şuan Online!
Rapor Et!
Şuan Online!
BroserBros Kurucu Admin
*******
Admin
05.06.2021 Yönetici Notu:

Kırık linkler kontrol edildi, kaldırıldı ve yenilendi. Tüm linkler tamamen çalışır durumda.


Hızlı Menü: