Filmbol Forum Film İndir FHD - FULL HD v Yeni Ahit (Le tout nouveau testament) - 2015 - TR+ORG - FHD - x264 | tt3792960

Premium Üyelik Al

Bildirimi Kapat
Mega linklerinin şikayet edilmemesi için global erişime kapatıp sadece yorum yapanlara açıyoruz. Bu linkleri gizleme işlemini mecburen yapıyoruz ve yorum yapmanızın siteye değil size faydası vardır. Teşekkürler yazmayı çok görüp, Random/Spam/Anlamsız mesajlar atarak forumu kirletip Mega linklerini açmaya çalışan kullanıcılara süresiz ban atacağız.


Yeni Ahit (Le tout nouveau testament) - 2015 - TR+ORG - FHD - x264 | tt3792960
TheSteeL
Yeni Ahit (Le tout nouveau testament) - 2015 - TR+ORG - FHD - x264 | tt3792960
0
61
  • Derecelendirme: 0/5 - 0 oy
  • 1
  • 2
  • 3
  • 4
  • 5
Konuyu Okuyanlar:1 Ziyaretçi
Şuan Online!
Filmin Yayınlanma Tarihi: 2015 
WWW
Şuan Online!
TheSteeL Süper Moderatör
*****
Süper Moderatör



 Yeni Ahit



Çok ilginç bir konuya sahip Fransız yapımı "Yeni Ahit" filmi ilginç bir komedi ve farklı bir yapım olarak karşımıza çıkıyor. Filmin başrolü bir tanrının kızıdır ve bir apartman dairesinde tanrı, kızı ve eşi yaşamaktadır. Baba bir tanrı olduğundan gelecek hakkında her şeyi bilmektedir. Bu onun bilgisayarında kayıtlıdır ve bir gün kızı tanrı babasından izinsiz bir şekilde bilgisayarını kurcalar. Gördüğü şeyler inanılmazdır ve tüm ölümleri, savaşları ve doğumları babası planlamaktadır. Bu hoşuna gitmediğinde Ea, yakın zamanda ölmesi planlanan kişilere e-posta yoluyla ulaşarak onların ölüm günlerini iletir. Maili alan kişiler ölümden kurtulur. Baba buna çok sinirlenir ve kızı ile arası açılır. Kızda bir tanrı ile başa çıkamayacağını anlayıp kendine altı havari bulmaya karar verir...

Yeni Ahit (2015) (Le tout nouveau testament) | tt3792960 Filmi Imdb'den 30500 kişi tarafından oylandı ve 7,1 puan aldı. Bu film için editör puanı %73 olarak belirlendi. İyi Seyirler!

Teknik Detaylar

Kod :
General
Unique ID                                : 14940802949237159384030066889588342157 (0xB3D7E756DA01371568D3A4831C9FD8D)
Complete name                            : /home/TheSteel/Desktop/1/Yeni.Ahit.2015.FHD.BluRay.x264.TR.ENG.Filmbol.mkv
Format                                   : Matroska
Format version                           : Version 4
File size                                : 5.65 GiB
Duration                                 : 1 h 54 min
Overall bit rate                         : 7 044 kb/s
Movie name                               : Yeni Ahit - The Brand New Testament - 2015 | Filmbol.org
Encoded date                             : UTC 2021-04-12 17:07:44
Writing application                      : mkvmerge v53.0.0 ('Fool's Gold') 64-bit
Writing library                          : libebml v1.4.1 + libmatroska v1.6.2

Video
ID                                       : 1
Format                                   : AVC
Format/Info                              : Advanced Video Codec
Format profile                           : [email protected]
Format settings                          : CABAC / 5 Ref Frames
Format settings, CABAC                   : Yes
Format settings, Reference frames        : 5 frames
Codec ID                                 : V_MPEG4/ISO/AVC
Duration                                 : 1 h 54 min
Bit rate                                 : 5 308 kb/s
Width                                    : 1 280 pixels
Height                                   : 536 pixels
Display aspect ratio                     : 2.40:1
Frame rate mode                          : Constant
Frame rate                               : 23.976 (24000/1001) FPS
Color space                              : YUV
Chroma subsampling                       : 4:2:0
Bit depth                                : 8 bits
Scan type                                : Progressive
Bits/(Pixel*Frame)                       : 0.323
Stream size                              : 4.25 GiB (75%)
Title                                    : FHD - Filmbol.org
Writing library                          : x264 core 148 r2744 b97ae06
Encoding settings                        : cabac=1 / ref=5 / deblock=1:-3:-3 / analyse=0x3:0x113 / me=umh / subme=8 / psy=1 / psy_rd=1.00:0.00 / mixed_ref=1 / me_range=16 / chroma_me=1 / trellis=1 / 8x8dct=1 / cqm=0 / deadzone=21,11 / fast_pskip=1 / chroma_qp_offset=-2 / threads=17 / lookahead_threads=2 / sliced_threads=0 / nr=0 / decimate=1 / interlaced=0 / bluray_compat=0 / constrained_intra=0 / bframes=3 / b_pyramid=2 / b_adapt=2 / b_bias=0 / direct=3 / weightb=1 / open_gop=0 / weightp=2 / keyint=240 / keyint_min=24 / scenecut=40 / intra_refresh=0 / rc_lookahead=50 / rc=2pass / mbtree=1 / bitrate=5308 / ratetol=1.0 / qcomp=0.60 / qpmin=0 / qpmax=69 / qpstep=4 / cplxblur=20.0 / qblur=0.5 / ip_ratio=1.40 / aq=3:0.80
Default                                  : Yes
Forced                                   : No

Audio #1
ID                                       : 2
Format                                   : AC-3
Format/Info                              : Audio Coding 3
Commercial name                          : Dolby Digital
Codec ID                                 : A_AC3
Duration                                 : 1 h 54 min
Bit rate mode                            : Constant
Bit rate                                 : 224 kb/s
Channel(s)                               : 2 channels
Channel layout                           : L R
Sampling rate                            : 48.0 kHz
Frame rate                               : 31.250 FPS (1536 SPF)
Compression mode                         : Lossy
Delay relative to video                  : 9 s 0 ms
Stream size                              : 184 MiB (3%)
Title                                    : Türkçe - Filmbol.org
Language                                 : Turkish
Service kind                             : Complete Main
Default                                  : Yes
Forced                                   : No

Audio #2
ID                                       : 3
Format                                   : DTS
Format/Info                              : Digital Theater Systems
Codec ID                                 : A_DTS
Duration                                 : 1 h 54 min
Bit rate mode                            : Constant
Bit rate                                 : 1 509 kb/s
Channel(s)                               : 6 channels
Channel layout                           : C L R Ls Rs LFE
Sampling rate                            : 48.0 kHz
Frame rate                               : 93.750 FPS (512 SPF)
Bit depth                                : 24 bits
Compression mode                         : Lossy
Stream size                              : 1.21 GiB (21%)
Title                                    : Orjinal Dil - Filmbol.org
Language                                 : French
Default                                  : No
Forced                                   : No

Text #1
ID                                       : 4
Format                                   : UTF-8
Codec ID                                 : S_TEXT/UTF8
Codec ID/Info                            : UTF-8 Plain Text
Duration                                 : 1 h 52 min
Bit rate                                 : 41 b/s
Count of elements                        : 889
Stream size                              : 34.5 KiB (0%)
Title                                    : Türkçe - Filmbol.org
Language                                 : Turkish
Default                                  : No
Forced                                   : No

Text #2
ID                                       : 5
Format                                   : UTF-8
Codec ID                                 : S_TEXT/UTF8
Codec ID/Info                            : UTF-8 Plain Text
Duration                                 : 1 h 52 min
Bit rate                                 : 38 b/s
Count of elements                        : 990
Stream size                              : 31.5 KiB (0%)
Title                                    : İngilizce - FORCED - Filmbol.org
Language                                 : English
Default                                  : No
Forced                                   : No

Film Detayları


 Yeni Ahit

 Yeni Ahit

 Yeni Ahit


Film Fragmanı


Film Detayları

Bunun için üzgünüz ancak, bu linke sadece premium üyeler erişebilir.

Filmbol Cloud







Hızlı Menü: