Filmbol Forum Film İndir BRRip XviD v Yeni Ahit (Le tout nouveau testament) - 2015 - TR - BRRip XviD | tt3792960

Premium Üyelik Al

Bildirimi Kapat
Mega linklerinin şikayet edilmemesi için global erişime kapatıp sadece yorum yapanlara açıyoruz. Bu linkleri gizleme işlemini mecburen yapıyoruz ve yorum yapmanızın siteye değil size faydası vardır. Teşekkürler yazmayı çok görüp, Random/Spam/Anlamsız mesajlar atarak forumu kirletip Mega linklerini açmaya çalışan kullanıcılara süresiz ban atacağız.


Yeni Ahit (Le tout nouveau testament) - 2015 - TR - BRRip XviD | tt3792960
TheSteeL
Yeni Ahit (Le tout nouveau testament) - 2015 - TR - BRRip XviD | tt3792960
2
85
  • Derecelendirme: 0/5 - 0 oy
  • 1
  • 2
  • 3
  • 4
  • 5
Konuyu Okuyanlar:1 Ziyaretçi
Şuan Online!
Filmin Yayınlanma Tarihi: 2015 
WWW
Şuan Online!
TheSteeL Süper Moderatör
*****
Süper Moderatör




 Yeni Ahit



Çok ilginç bir konuya sahip Fransız yapımı "Yeni Ahit" filmi ilginç bir komedi ve farklı bir yapım olarak karşımıza çıkıyor. Filmin başrolü bir tanrının kızıdır ve bir apartman dairesinde tanrı, kızı ve eşi yaşamaktadır. Baba bir tanrı olduğundan gelecek hakkında her şeyi bilmektedir. Bu onun bilgisayarında kayıtlıdır ve bir gün kızı tanrı babasından izinsiz bir şekilde bilgisayarını kurcalar. Gördüğü şeyler inanılmazdır ve tüm ölümleri, savaşları ve doğumları babası planlamaktadır. Bu hoşuna gitmediğinde Ea, yakın zamanda ölmesi planlanan kişilere e-posta yoluyla ulaşarak onların ölüm günlerini iletir. Maili alan kişiler ölümden kurtulur. Baba buna çok sinirlenir ve kızı ile arası açılır. Kızda bir tanrı ile başa çıkamayacağını anlayıp kendine altı havari bulmaya karar verir...

Yeni Ahit (2015) (Le tout nouveau testament) | tt3792960 Filmi Imdb'den 30500 kişi tarafından oylandı ve 7,1 puan aldı. Bu film için editör puanı %73 olarak belirlendi. İyi Seyirler!

Teknik Detaylar

Kod :
General
Unique ID                                : 12430000864146253879332576312796993968 (0x959EE5BBCC7295FCB75A86E8F7559B0)
Complete name                            : /home/TheSteel/Desktop/1/Yeni.Ahit.2015.BRRip.XViD.TR.Filmbol.avi
Format                                  : Matroska
Format version                          : Version 4
File size                                : 931 MiB
Duration                                : 1 h 54 min
Overall bit rate                        : 1 137 kb/s
Movie name                              : Yeni Ahit - The Brand New Testament - 2015 | Filmbol.org
Encoded date                            : UTC 2021-04-12 17:19:37
Writing application                      : mkvmerge v53.0.0 ('Fool's Gold') 64-bit
Writing library                          : libebml v1.4.1 + libmatroska v1.6.2
FileExtension_Invalid                    : mkv mk3d mka mks

Video
ID                                      : 1
Format                                  : MPEG-4 Visual
Format profile                          : Advanced [email protected]
Format settings                          : BVOP2
Format settings, BVOP                    : 2
Format settings, QPel                    : No
Format settings, GMC                    : No warppoints
Format settings, Matrix                  : Default (MPEG)
Muxing mode                              : Packed bitstream
Codec ID                                : V_MS/VFW/FOURCC / XVID
Codec ID/Hint                            : XviD
Duration                                : 1 h 54 min
Bit rate                                : 1 007 kb/s
Width                                    : 720 pixels
Height                                  : 300 pixels
Display aspect ratio                    : 2.40:1
Frame rate mode                          : Constant
Frame rate                              : 23.976 (24000/1001) FPS
Original frame rate                      : 23.976 (23976/1000) FPS
Color space                              : YUV
Chroma subsampling                      : 4:2:0
Bit depth                                : 8 bits
Scan type                                : Progressive
Compression mode                        : Lossy
Bits/(Pixel*Frame)                      : 0.194
Stream size                              : 825 MiB (89%)
Title                                    : Yeni Ahit - The Brand New Testament - 2015 | Filmbol.org
Writing library                          : XviD 64
Default                                  : Yes
Forced                                  : No

Audio
ID                                      : 2
Format                                  : MPEG Audio
Format version                          : Version 1
Format profile                          : Layer 3
Format settings                          : Joint stereo / MS Stereo
Codec ID                                : A_MPEG/L3
Codec ID/Hint                            : MP3
Duration                                : 1 h 54 min
Bit rate mode                            : Constant
Bit rate                                : 128 kb/s
Channel(s)                              : 2 channels
Sampling rate                            : 48.0 kHz
Frame rate                              : 41.667 FPS (1152 SPF)
Compression mode                        : Lossy
Stream size                              : 105 MiB (11%)
Title                                    : Yeni Ahit - The Brand New Testament - 2015 | Filmbol.org
Default                                  : Yes
Forced                                  : No

Film Detayları


 Yeni Ahit

 Yeni Ahit

 Yeni Ahit


Film Fragmanı


Film Detayları


Uptobox ile indir

1Fichier ile indir

1Fichier'den İndiremiyor musun? Tıklayın!


Mega linki şuan da gizli. Kullanıma açmak için konuya yorum yapın ve ardından sayfayı yenileyin.

Mega


Bunun için üzgünüz ancak, bu linke sadece premium üyeler erişebilir.

Filmbol Cloud





Şuan Offine!
Şuan Offine!
stb Süper Üye
***
Super Üye

  • Konular0
  • Mesajlar45
  • Rep puanı 0
Teşekkürler
Şuan Online!
Şuan Online!
TheSteeL Süper Moderatör
*****
Süper Moderatör

(13-04-2021, Saat: 21:48)stb Adlı Kullanıcıdan Alıntı: Teşekkürler
İyi Seyirler


Hızlı Menü: