Filmbol Forum Film İndir 1080P v Yeni Ahit (Le tout nouveau testament) - 2015 - TR+ORG - 1080P | tt3792960

Premium Üyelik Al

Bildirimi Kapat
Mega linklerinin şikayet edilmemesi için global erişime kapatıp sadece yorum yapanlara açıyoruz. Bu linkleri gizleme işlemini mecburen yapıyoruz ve yorum yapmanızın siteye değil size faydası vardır. Teşekkürler yazmayı çok görüp, Random/Spam/Anlamsız mesajlar atarak forumu kirletip Mega linklerini açmaya çalışan kullanıcılara süresiz ban atacağız.


Yeni Ahit (Le tout nouveau testament) - 2015 - TR+ORG - 1080P | tt3792960
TheSteeL
Yeni Ahit (Le tout nouveau testament) - 2015 - TR+ORG - 1080P | tt3792960
6
142
  • Derecelendirme: 0/5 - 0 oy
  • 1
  • 2
  • 3
  • 4
  • 5
Konuyu Okuyanlar:1 Ziyaretçi
Şuan Online!
Filmin Yayınlanma Tarihi: 2015 
WWW
Şuan Online!
TheSteeL Süper Moderatör
*****
Süper Moderatör



 Yeni Ahit



Çok ilginç bir konuya sahip Fransız yapımı "Yeni Ahit" filmi ilginç bir komedi ve farklı bir yapım olarak karşımıza çıkıyor. Filmin başrolü bir tanrının kızıdır ve bir apartman dairesinde tanrı, kızı ve eşi yaşamaktadır. Baba bir tanrı olduğundan gelecek hakkında her şeyi bilmektedir. Bu onun bilgisayarında kayıtlıdır ve bir gün kızı tanrı babasından izinsiz bir şekilde bilgisayarını kurcalar. Gördüğü şeyler inanılmazdır ve tüm ölümleri, savaşları ve doğumları babası planlamaktadır. Bu hoşuna gitmediğinde Ea, yakın zamanda ölmesi planlanan kişilere e-posta yoluyla ulaşarak onların ölüm günlerini iletir. Maili alan kişiler ölümden kurtulur. Baba buna çok sinirlenir ve kızı ile arası açılır. Kızda bir tanrı ile başa çıkamayacağını anlayıp kendine altı havari bulmaya karar verir...

Yeni Ahit (2015) (Le tout nouveau testament) | tt3792960 Filmi Imdb'den 30500 kişi tarafından oylandı ve 7,1 puan aldı. Bu film için editör puanı %73 olarak belirlendi. İyi Seyirler!

Teknik Detaylar

Kod :
General
Unique ID                                : 105293277366423106946340813597634606611 (0x4F36BF618D29B5D0BD42BA2A026A3613)
Complete name                            : /home/TheSteel/Desktop/1/Yeni.Ahit.2015.1080p.BluRay.x264.TR.ENG.Filmbol.mkv
Format                                   : Matroska
Format version                           : Version 4
File size                                : 2.10 GiB
Duration                                 : 1 h 54 min
Overall bit rate                         : 2 629 kb/s
Movie name                               : Yeni Ahit - The Brand New Testament - 2015 | Filmbol.org
Encoded date                             : UTC 2021-04-12 16:02:22
Writing application                      : mkvmerge v53.0.0 ('Fool's Gold') 64-bit
Writing library                          : libebml v1.4.1 + libmatroska v1.6.2

Video
ID                                       : 1
Format                                   : AVC
Format/Info                              : Advanced Video Codec
Format profile                           : [email protected]
Format settings                          : CABAC / 2 Ref Frames
Format settings, CABAC                   : Yes
Format settings, Reference frames        : 2 frames
Format settings, GOP                     : N=1
Codec ID                                 : V_MPEG4/ISO/AVC
Duration                                 : 1 h 54 min
Bit rate                                 : 2 211 kb/s
Width                                    : 1 920 pixels
Height                                   : 804 pixels
Display aspect ratio                     : 2.40:1
Frame rate mode                          : Constant
Frame rate                               : 23.976 (24000/1001) FPS
Color space                              : YUV
Chroma subsampling                       : 4:2:0
Bit depth                                : 8 bits
Scan type                                : Progressive
Bits/(Pixel*Frame)                       : 0.060
Stream size                              : 1.77 GiB (84%)
Title                                    : 1080P - Filmbol.org
Language                                 : French
Default                                  : Yes
Forced                                   : No

Audio #1
ID                                       : 2
Format                                   : AC-3
Format/Info                              : Audio Coding 3
Commercial name                          : Dolby Digital
Codec ID                                 : A_AC3
Duration                                 : 1 h 54 min
Bit rate mode                            : Constant
Bit rate                                 : 224 kb/s
Channel(s)                               : 2 channels
Channel layout                           : L R
Sampling rate                            : 48.0 kHz
Frame rate                               : 31.250 FPS (1536 SPF)
Compression mode                         : Lossy
Stream size                              : 184 MiB (9%)
Title                                    : Türkçe - Filmbol.org
Language                                 : Turkish
Service kind                             : Complete Main
Default                                  : Yes
Forced                                   : No

Audio #2
ID                                       : 3
Format                                   : AC-3
Format/Info                              : Audio Coding 3
Commercial name                          : Dolby Digital
Codec ID                                 : A_AC3
Duration                                 : 1 h 54 min
Bit rate mode                            : Constant
Bit rate                                 : 192 kb/s
Channel(s)                               : 2 channels
Channel layout                           : L R
Sampling rate                            : 48.0 kHz
Frame rate                               : 31.250 FPS (1536 SPF)
Compression mode                         : Lossy
Stream size                              : 157 MiB (7%)
Title                                    : Orjinal Dil - Filmbol.org
Language                                 : English
Service kind                             : Complete Main
Default                                  : No
Forced                                   : No

Text
ID                                       : 4
Format                                   : UTF-8
Codec ID                                 : S_TEXT/UTF8
Codec ID/Info                            : UTF-8 Plain Text
Duration                                 : 1 h 52 min
Bit rate                                 : 41 b/s
Count of elements                        : 889
Stream size                              : 34.5 KiB (0%)
Title                                    : Türkçe - Filmbol.org
Language                                 : Turkish
Default                                  : No
Forced                                   : No

Film Detayları


 Yeni Ahit

 Yeni Ahit

 Yeni Ahit


Film Fragmanı


Film Detayları

Uptobox ile indir

1Fichier ile indir

1Fichier'den İndiremiyor musun? Tıklayın!


Mega linki şuan da gizli. Kullanıma açmak için konuya yorum yapın ve ardından sayfayı yenileyin.

Mega


Bunun için üzgünüz ancak, bu linke sadece premium üyeler erişebilir.

Filmbol Cloud





Şuan Offine!
Şuan Offine!
Ugur_1988 Premium Üye
****

  • Konular11
  • Mesajlar100
  • Rep puanı 23
Güzel olmuş elinize sağlık.
Şuan Online!
Şuan Online!
TheSteeL Süper Moderatör
*****
Süper Moderatör

(14-04-2021, Saat: 17:45)Ugur_1988 Adlı Kullanıcıdan Alıntı: Güzel olmuş elinize sağlık.
Teşekkürler İyi Seyirler
Şuan Offine!
Şuan Offine!
ahmetyee1 Süper Üye
***
Super Üye

  • Konular2
  • Mesajlar61
  • Rep puanı 0
Teşekkürler 
Şuan Online!
Şuan Online!
TheSteeL Süper Moderatör
*****
Süper Moderatör

(14-04-2021, Saat: 20:41)ahmetyee1 Adlı Kullanıcıdan Alıntı: Teşekkürler 
İyi Seyirler
Şuan Offine!
Şuan Offine!
Alonewolf Yeni Üye
*
Üye

  • Konular0
  • Mesajlar1
  • Rep puanı 0
(14-04-2021, Saat: 17:45)Ugur_1988 Adlı Kullanıcıdan Alıntı: Güzel olmuş elinize sağlık.
İnşallah beklediğim gibidir.

İnşallah beklediğim gibidir. Şimdiden Teşekkürler
Şuan Online!
Şuan Online!
TheSteeL Süper Moderatör
*****
Süper Moderatör

(17-04-2021, Saat: 23:31)Alonewolf Adlı Kullanıcıdan Alıntı:
(14-04-2021, Saat: 17:45)Ugur_1988 Adlı Kullanıcıdan Alıntı: Güzel olmuş elinize sağlık.
İnşallah beklediğim gibidir.

İnşallah beklediğim gibidir. Şimdiden Teşekkürler
İyi Seyirler


Hızlı Menü: