Filmbol Forum Film İndir FHD - FULL HD v Boss Level (Boss Level) - 2021 - TR+ORG - FHD - x264 | tt7638348
Bildirimi Kapat
Server kaynaklı problemden dolayı ciddi bir sorun yaşadık. Şuanda forum ve portal aktif halde ancak bazı problemler hala devam ediyor. Problem gördüğünüz yerleri bize bildirmeniz çok önemli. Teşekkürler.

Bildirimi Kapat
Merhaba , site giderlerini bir nebze olsun karşılamak adına link kısaltma servisleri kullanmaya başladık. İndirme linkleri sizi ouo.io adresinde yönlendirecek, 3 saniye geçtikten sonra Get Link butonuna tıklayarak linke ulaşacaksınız. Premium üyeler bu durumdan etkilenmeyecektir.


Premium Üyelik Al

Boss Level (Boss Level) - 2021 - TR+ORG - FHD - x264 | tt7638348
TheSteeL
Boss Level (Boss Level) - 2021 - TR+ORG - FHD - x264 | tt7638348
1
216
  • Derecelendirme: 0/5 - 0 oy
  • 1
  • 2
  • 3
  • 4
  • 5
Konuyu Okuyanlar:1 Ziyaretçi
Şuan Online!
Filmin Yayınlanma Tarihi: 2021 
Şuan Online!
TheSteeL Chief Executive Officer
******
CEO


 Boss Level



Bilim-Kurgu tadında Aksiyon ve Gerilim filmi olan Boss Level emekli bir subayı mercek altında alıyor. Subay aslında uzun bir süre önce ölmüştür. Ancak o, sabah uyanarak aynı günü tekrar yaşar. Bir süre sonra her zaman aynı günü yaşadığını farkeden subay, öldüğünü o zaman anlar. Bir döngü içerisinde iken bunun bir rüya mı, yoksa gerçek mi olduğunu anlayamaz. Bunun iki yolu olabilir. Birincisi kendisi ağır yaralı bir şekilde yaralıdır ve bu gördüğü şeyler aslında rüyadır. İkinci seçenek ise bunların tamamen gerçek olmasıdır. Her ne olursa olsun, yapması gereken tek şeyin bu döngüden çıkmak olduğunu anlayacaktır..

Boss Level (2021) (Boss Level) | tt7638348 Filmi Imdb'den 18000 kişi tarafından oylandı ve 6,9 puan aldı. Bu film için editör puanı %74 olarak belirlendi. İyi Seyirler!

Teknik Detaylar

Kod :
General
Unique ID                                : 333127450764908952686069255013037622185 (0xFA9E0365D479F48405AFB0759FFDC3A9)
Complete name                            : /home/TheSteel/Desktop/1/Boss.Level.2021.FHD.BluRay.x264.TR.ENG.Filmbol.mkv
Format                                   : Matroska
Format version                           : Version 4
File size                                : 6.51 GiB
Duration                                 : 1 h 40 min
Overall bit rate                         : 9 224 kb/s
Movie name                               : Boss Level - 2021 | Filmbol.org
Encoded date                             : UTC 2021-04-03 18:18:07
Writing application                      : mkvmerge v31.0.0 ('Dolores In A Shoestand') 64-bit
Writing library                          : libebml v1.3.6 + libmatroska v1.4.9

Video
ID                                       : 1
Format                                   : AVC
Format/Info                              : Advanced Video Codec
Format profile                           : [email protected]
Format settings                          : CABAC / 2 Ref Frames
Format settings, CABAC                   : Yes
Format settings, Reference frames        : 2 frames
Format settings, GOP                     : N=1
Codec ID                                 : V_MPEG4/ISO/AVC
Duration                                 : 1 h 40 min
Bit rate                                 : 8 389 kb/s
Width                                    : 1 920 pixels
Height                                   : 808 pixels
Display aspect ratio                     : 2.40:1
Frame rate mode                          : Constant
Frame rate                               : 23.976 (24000/1001) FPS
Color space                              : YUV
Chroma subsampling                       : 4:2:0
Bit depth                                : 8 bits
Scan type                                : Progressive
Bits/(Pixel*Frame)                       : 0.226
Stream size                              : 5.92 GiB (91%)
Title                                    : Boss Level - 2021 | Filmbol.org
Language                                 : English
Default                                  : Yes
Forced                                   : No

Audio #1
ID                                       : 2
Format                                   : AC-3
Format/Info                              : Audio Coding 3
Commercial name                          : Dolby Digital
Codec ID                                 : A_AC3
Duration                                 : 1 h 40 min
Bit rate mode                            : Constant
Bit rate                                 : 192 kb/s
Channel(s)                               : 2 channels
Channel layout                           : L R
Sampling rate                            : 48.0 kHz
Frame rate                               : 31.250 FPS (1536 SPF)
Compression mode                         : Lossy
Stream size                              : 139 MiB (2%)
Title                                    : Boss Level - 2021 | Filmbol.org
Language                                 : Turkish
Service kind                             : Complete Main
Default                                  : Yes
Forced                                   : No

Audio #2
ID                                       : 3
Format                                   : AC-3
Format/Info                              : Audio Coding 3
Commercial name                          : Dolby Digital
Codec ID                                 : A_AC3
Duration                                 : 1 h 40 min
Bit rate mode                            : Constant
Bit rate                                 : 640 kb/s
Channel(s)                               : 6 channels
Channel layout                           : L R C LFE Ls Rs
Sampling rate                            : 48.0 kHz
Frame rate                               : 31.250 FPS (1536 SPF)
Compression mode                         : Lossy
Stream size                              : 462 MiB (7%)
Title                                    : Boss Level - 2021 | Filmbol.org
Language                                 : English
Service kind                             : Complete Main
Default                                  : No
Forced                                   : No

Text
ID                                       : 4
Format                                   : UTF-8
Codec ID                                 : S_TEXT/UTF8
Codec ID/Info                            : UTF-8 Plain Text
Duration                                 : 1 h 30 min
Bit rate                                 : 81 b/s
Count of elements                        : 1190
Stream size                              : 53.9 KiB (0%)
Title                                    : Boss Level - 2021 | Filmbol.org
Language                                 : Turkish
Default                                  : No
Forced                                   : No

Film Detayları


 Boss Level

 Boss Level

 Boss Level


Film Fragmanı


Film İndir



Zip Şifresi: filmbol.org Aşağıdaki butona tıklayarak kopyalabilirsiniz.





Filmbol Cloud

Bunun için üzgünüz ancak, bu linke sadece premium üyeler erişebilir.




WWW
Şuan Offine!
Şuan Offine!
extremeways Yeni Üye
*
Üye
  • Konular0
  • Mesajlar28
  • Rep puanı 0
Teşekkürler.


Hızlı Menü: