Filmbol Forum Film İndir 1080P v Boss Level (Boss Level) - 2021 - TR+ORG - 1080P | tt7638348

Premium Üyelik Al

Bildirimi Kapat
Mega linklerinin şikayet edilmemesi için global erişime kapatıp sadece yorum yapanlara açıyoruz. Bu linkleri gizleme işlemini mecburen yapıyoruz ve yorum yapmanızın siteye değil size faydası vardır. Teşekkürler yazmayı çok görüp, Random/Spam/Anlamsız mesajlar atarak forumu kirletip Mega linklerini açmaya çalışan kullanıcılara süresiz ban atacağız.


Boss Level (Boss Level) - 2021 - TR+ORG - 1080P | tt7638348
TheSteeL
Boss Level (Boss Level) - 2021 - TR+ORG - 1080P | tt7638348
15
321
  • Derecelendirme: 0/5 - 0 oy
  • 1
  • 2
  • 3
  • 4
  • 5
Konuyu Okuyanlar:1 Ziyaretçi
Şuan Online!
Filmin Yayınlanma Tarihi: 2021 
WWW
Şuan Online!
TheSteeL Süper Moderatör
*****
Süper Moderatör



 Boss Level



Bilim-Kurgu tadında Aksiyon ve Gerilim filmi olan Boss Level emekli bir subayı mercek altında alıyor. Subay aslında uzun bir süre önce ölmüştür. Ancak o, sabah uyanarak aynı günü tekrar yaşar. Bir süre sonra her zaman aynı günü yaşadığını farkeden subay, öldüğünü o zaman anlar. Bir döngü içerisinde iken bunun bir rüya mı, yoksa gerçek mi olduğunu anlayamaz. Bunun iki yolu olabilir. Birincisi kendisi ağır yaralı bir şekilde yaralıdır ve bu gördüğü şeyler aslında rüyadır. İkinci seçenek ise bunların tamamen gerçek olmasıdır. Her ne olursa olsun, yapması gereken tek şeyin bu döngüden çıkmak olduğunu anlayacaktır..

Boss Level (2021) (Boss Level) | tt7638348 Filmi Imdb'den 18000 kişi tarafından oylandı ve 6,9 puan aldı. Bu film için editör puanı %74 olarak belirlendi. İyi Seyirler!

Teknik Detaylar

Kod :
General
Unique ID                                : 332786368779517344249795243437997227017 (0xFA5C52C1EE12EBF059885FBE9C0CFC09)
Complete name                            : /home/TheSteel/Desktop/1/Boss.Level.2021.1080p.BluRay.x264.TR.ENG.Filmbol.mkv
Format                                   : Matroska
Format version                           : Version 4
File size                                : 1.86 GiB
Duration                                 : 1 h 40 min
Overall bit rate                         : 2 636 kb/s
Movie name                               : Boss Level - 2021 | Filmbol.org
Encoded date                             : UTC 2021-04-03 18:16:56
Writing application                      : mkvmerge v31.0.0 ('Dolores In A Shoestand') 64-bit
Writing library                          : libebml v1.3.6 + libmatroska v1.4.9

Video
ID                                       : 1
Format                                   : AVC
Format/Info                              : Advanced Video Codec
Format profile                           : [email protected]
Format settings                          : CABAC / 4 Ref Frames
Format settings, CABAC                   : Yes
Format settings, Reference frames        : 4 frames
Codec ID                                 : V_MPEG4/ISO/AVC
Duration                                 : 1 h 40 min
Bit rate                                 : 2 250 kb/s
Width                                    : 1 920 pixels
Height                                   : 800 pixels
Display aspect ratio                     : 2.40:1
Frame rate mode                          : Constant
Frame rate                               : 23.976 (24000/1001) FPS
Color space                              : YUV
Chroma subsampling                       : 4:2:0
Bit depth                                : 8 bits
Scan type                                : Progressive
Bits/(Pixel*Frame)                       : 0.061
Stream size                              : 1.59 GiB (85%)
Title                                    : Boss Level - 2021 | Filmbol.org
Writing library                          : x264 core 161
Encoding settings                        : cabac=1 / ref=4 / deblock=1:-1:-1 / analyse=0x3:0x133 / me=umh / subme=9 / psy=1 / psy_rd=1.00:0.15 / mixed_ref=1 / me_range=24 / chroma_me=1 / trellis=2 / 8x8dct=1 / cqm=0 / deadzone=21,11 / fast_pskip=0 / chroma_qp_offset=-3 / threads=24 / lookahead_threads=2 / sliced_threads=0 / nr=0 / decimate=1 / interlaced=0 / bluray_compat=0 / constrained_intra=0 / bframes=3 / b_pyramid=2 / b_adapt=2 / b_bias=0 / direct=3 / weightb=1 / open_gop=0 / weightp=2 / keyint=250 / keyint_min=23 / scenecut=40 / intra_refresh=0 / rc_lookahead=60 / rc=2pass / mbtree=1 / bitrate=2250 / ratetol=1.0 / qcomp=0.60 / qpmin=0 / qpmax=69 / qpstep=4 / cplxblur=20.0 / qblur=0.5 / vbv_maxrate=31250 / vbv_bufsize=31250 / nal_hrd=none / filler=0 / ip_ratio=1.40 / aq=1:1.00
Default                                  : Yes
Forced                                   : No
Color range                              : Limited
Matrix coefficients                      : BT.709

Audio #1
ID                                       : 2
Format                                   : AC-3
Format/Info                              : Audio Coding 3
Commercial name                          : Dolby Digital
Codec ID                                 : A_AC3
Duration                                 : 1 h 40 min
Bit rate mode                            : Constant
Bit rate                                 : 192 kb/s
Channel(s)                               : 2 channels
Channel layout                           : L R
Sampling rate                            : 48.0 kHz
Frame rate                               : 31.250 FPS (1536 SPF)
Compression mode                         : Lossy
Stream size                              : 139 MiB (7%)
Title                                    : Boss Level - 2021 | Filmbol.org
Language                                 : Turkish
Service kind                             : Complete Main
Default                                  : Yes
Forced                                   : No

Audio #2
ID                                       : 3
Format                                   : AC-3
Format/Info                              : Audio Coding 3
Commercial name                          : Dolby Digital
Codec ID                                 : A_AC3
Duration                                 : 1 h 40 min
Bit rate mode                            : Constant
Bit rate                                 : 192 kb/s
Channel(s)                               : 2 channels
Channel layout                           : L R
Sampling rate                            : 48.0 kHz
Frame rate                               : 31.250 FPS (1536 SPF)
Compression mode                         : Lossy
Stream size                              : 139 MiB (7%)
Title                                    : Boss Level - 2021 | Filmbol.org
Language                                 : English
Service kind                             : Complete Main
Default                                  : No
Forced                                   : No

Text
ID                                       : 4
Format                                   : UTF-8
Codec ID                                 : S_TEXT/UTF8
Codec ID/Info                            : UTF-8 Plain Text
Duration                                 : 1 h 30 min
Bit rate                                 : 81 b/s
Count of elements                        : 1190
Stream size                              : 53.9 KiB (0%)
Title                                    : Boss Level - 2021 | Filmbol.org
Language                                 : Turkish
Default                                  : No
Forced                                   : No

Film Detayları


 Boss Level

 Boss Level

 Boss Level


Film Fragmanı


Film Detayları

Uptobox ile indir

1Fichier ile indir

1Fichier'den İndiremiyor musun? Tıklayın!


Mega linki şuan da gizli. Kullanıma açmak için konuya yorum yapın ve ardından sayfayı yenileyin.

Mega


Bunun için üzgünüz ancak, bu linke sadece premium üyeler erişebilir.

Filmbol Cloud





Şuan Offine!
Şuan Offine!
Aspirin46 Süper Üye
***
Super Üye

  • Konular0
  • Mesajlar58
  • Rep puanı 0
süper
Şuan Online!
Şuan Online!
TheSteeL Süper Moderatör
*****
Süper Moderatör

(07-04-2021, Saat: 14:03)Aspirin46 Adlı Kullanıcıdan Alıntı: süper
İyi Seyirler
Şuan Offine!
Şuan Offine!
muradims Yeni Üye
*
Üye

  • Konular0
  • Mesajlar5
  • Rep puanı 0
(07-04-2021, Saat: 14:03)Aspirin46 Adlı Kullanıcıdan Alıntı: süper
teşekkürler
Şuan Offine!
Şuan Offine!
ishak Uzman Üye
**
Uzman Üye

  • Konular0
  • Mesajlar6
  • Rep puanı 0
merak ediyorum
Şuan Offine!
Şuan Offine!
KırmızıPatos Yeni Üye
*
Üye

  • Konular0
  • Mesajlar4
  • Rep puanı 0
Teşekkürler
Şuan Online!
Şuan Online!
TheSteeL Süper Moderatör
*****
Süper Moderatör

(18-04-2021, Saat: 19:48)KırmızıPatos Adlı Kullanıcıdan Alıntı: Teşekkürler
İyi Seyirler
Şuan Offine!
Şuan Offine!
muli2906 Yeni Üye
*
Üye

  • Konular0
  • Mesajlar1
  • Rep puanı 0
Emeginiz icin tesekkurler.
Şuan Online!
Şuan Online!
TheSteeL Süper Moderatör
*****
Süper Moderatör

(24-04-2021, Saat: 15:22)muli2906 Adlı Kullanıcıdan Alıntı: Emeginiz icin tesekkurler.
İyi Seyirler
Şuan Offine!
Şuan Offine!
ahmettuncr Süper Üye
***
Super Üye

  • Konular0
  • Mesajlar45
  • Rep puanı 0
Çok güzel bir filme benziyor


Hızlı Menü: