Filmbol Forum Film İndir BRRip XviD v Boss Level (Boss Level) - 2021 - TR - BRRip XviD | tt7638348
Bildirimi Kapat
Üyelik alımları açıldı.


Bildirimi Kapat
Mega linklerinin şikayet edilmemesi için global erişime kapatıp sadece yorum yapanlara açıyoruz. Bu linkleri gizleme işlemini mecburen yapıyoruz ve yorum yapmanızın siteye değil size faydası vardır. Teşekkürler yazmayı çok görüp, Random/Spam/Anlamsız mesajlar atarak forumu kirletip Mega linklerini açmaya çalışan kullanıcılara süresiz ban atacağız.

Premium Üyelik Al

Boss Level (Boss Level) - 2021 - TR - BRRip XviD | tt7638348
TheSteeL
Boss Level (Boss Level) - 2021 - TR - BRRip XviD | tt7638348
0
135
  • Derecelendirme: 0/5 - 0 oy
  • 1
  • 2
  • 3
  • 4
  • 5
Konuyu Okuyanlar:1 Ziyaretçi
Şuan Online!
Filmin Yayınlanma Tarihi: 2021 
WWW
Şuan Online!
TheSteeL Süper Moderatör
*****
Süper Moderatör



 Boss Level



Bilim-Kurgu tadında Aksiyon ve Gerilim filmi olan Boss Level emekli bir subayı mercek altında alıyor. Subay aslında uzun bir süre önce ölmüştür. Ancak o, sabah uyanarak aynı günü tekrar yaşar. Bir süre sonra her zaman aynı günü yaşadığını farkeden subay, öldüğünü o zaman anlar. Bir döngü içerisinde iken bunun bir rüya mı, yoksa gerçek mi olduğunu anlayamaz. Bunun iki yolu olabilir. Birincisi kendisi ağır yaralı bir şekilde yaralıdır ve bu gördüğü şeyler aslında rüyadır. İkinci seçenek ise bunların tamamen gerçek olmasıdır. Her ne olursa olsun, yapması gereken tek şeyin bu döngüden çıkmak olduğunu anlayacaktır..

Boss Level (2021) (Boss Level) | tt7638348 Filmi Imdb'den 18000 kişi tarafından oylandı ve 6,9 puan aldı. Bu film için editör puanı %74 olarak belirlendi. İyi Seyirler!

Teknik Detaylar

Kod :
General
Unique ID                                : 58355035963707647394205600905492116034 (0x2BE6C567E99DA6C33E1BF9698AA33242)
Complete name                            : /home/TheSteel/Desktop/1/Boss.Level.2021.BDRip.XViD.TR.Filmbol.avi
Format                                   : Matroska
Format version                           : Version 4
File size                                : 1.23 GiB
Duration                                 : 1 h 40 min
Overall bit rate                         : 1 744 kb/s
Movie name                               : Boss Level - 2021 | Filmbol.org
Encoded date                             : UTC 2021-04-03 18:20:48
Writing application                      : mkvmerge v31.0.0 ('Dolores In A Shoestand') 64-bit
Writing library                          : libebml v1.3.6 + libmatroska v1.4.9
FileExtension_Invalid                    : mkv mk3d mka mks

Video
ID                                       : 1
Format                                   : MPEG-4 Visual
Format profile                           : Advanced [email protected]
Format settings                          : BVOP / Custom Matrix
Format settings, BVOP                    : Yes
Format settings, QPel                    : No
Format settings, GMC                     : No warppoints
Format settings, Matrix                  : Custom
Codec ID                                 : V_MS/VFW/FOURCC / XVID
Codec ID/Hint                            : XviD
Duration                                 : 1 h 40 min
Bit rate                                 : 1 614 kb/s
Width                                    : 720 pixels
Height                                   : 304 pixels
Display aspect ratio                     : 2.35:1
Frame rate mode                          : Constant
Frame rate                               : 23.976 (23976/1000) FPS
Color space                              : YUV
Chroma subsampling                       : 4:2:0
Bit depth                                : 8 bits
Scan type                                : Progressive
Compression mode                         : Lossy
Bits/(Pixel*Frame)                       : 0.308
Stream size                              : 1.14 GiB (93%)
Title                                    : Boss Level - 2021 | Filmbol.org
Writing library                          : XviD 73
Default                                  : Yes
Forced                                   : No

Audio
ID                                       : 2
Format                                   : MPEG Audio
Format version                           : Version 1
Format profile                           : Layer 3
Format settings                          : Joint stereo
Codec ID                                 : A_MPEG/L3
Codec ID/Hint                            : MP3
Duration                                 : 1 h 40 min
Bit rate mode                            : Constant
Bit rate                                 : 128 kb/s
Channel(s)                               : 2 channels
Sampling rate                            : 48.0 kHz
Frame rate                               : 41.667 FPS (1152 SPF)
Compression mode                         : Lossy
Stream size                              : 92.5 MiB (7%)
Title                                    : Boss Level - 2021 | Filmbol.org
Writing library                          : LAME3.99.5
Default                                  : Yes
Forced                                   : No

Film Detayları


 Boss Level

 Boss Level

 Boss Level


Film Fragmanı


Film Detayları


Uptobox ile indir

1Fichier ile indir

1Fichier'den İndiremiyor musun? Tıklayın!


Mega linki şuan da gizli. Kullanıma açmak için konuya yorum yapın ve ardından sayfayı yenileyin.

Mega


Bunun için üzgünüz ancak, bu linke sadece premium üyeler erişebilir.

Filmbol Cloud







Hızlı Menü: