Filmbol Forum Film İndir 1080P v Kaptan Pengu ve Arkadaşları: Mandalina'nın Günlüğü (Kaptan Pengu ve Arkadaslari) - 2020 - TR+ORG - 1080P | tt11576180

Premium Üyelik Al

Bildirimi Kapat
Mega linklerinin şikayet edilmemesi için global erişime kapatıp sadece yorum yapanlara açıyoruz. Bu linkleri gizleme işlemini mecburen yapıyoruz ve yorum yapmanızın siteye değil size faydası vardır. Teşekkürler yazmayı çok görüp, Random/Spam/Anlamsız mesajlar atarak forumu kirletip Mega linklerini açmaya çalışan kullanıcılara süresiz ban atacağız.


Kaptan Pengu ve Arkadaşları: Mandalina'nın Günlüğü (Kaptan Pengu ve Arkadaslari) - 2020 - TR+ORG - 1080P | tt11576180
TheSteeL
Kaptan Pengu ve Arkadaşları: Mandalina'nın Günlüğü (Kaptan Pengu ve Arkadaslari) - 2020 - TR+ORG - 1080P | tt11576180
2
128
  • Derecelendirme: 0/5 - 0 oy
  • 1
  • 2
  • 3
  • 4
  • 5
Konuyu Okuyanlar:1 Ziyaretçi
Şuan Online!
Filmin Yayınlanma Tarihi: 2020 
WWW
Şuan Online!
TheSteeL Süper Moderatör
*****
Süper Moderatör



 Kaptan Pengu ve Arkadaşları: Mandalina'nın Günlüğü



Kaptan Pengu ve Arkadaşları animasyon filmi, yine aynı isimle yayınlanan çizgi dizinin beyazperdeye taşınmış hali olarak karşımıza çıkıyor. Küresel ısınma ve buzulların erimesine dikkat çekerken eğlenceli şekilde bir maceraya atılan Kaptan Pengu'nun hayatını işleyen animasyon filminde Pengu'nun evini terk etme sebebi de arkadaşlarından birinin eriyen buzullar içinde kaybolup gitmesi oluyor. Ana hedefi arkadaşını bulmak olsa da, bunu yaparken birçok maceraya atılıyor...

Kaptan Pengu ve Arkadaşları: Mandalina'nın Günlüğü (2020) (Kaptan Pengu ve Arkadaslari) | tt11576180 Filmi Imdb'den 16 kişi tarafından oylandı ve 5,1 puan aldı. Bu film için editör puanı %47 olarak belirlendi. İyi Seyirler!

Teknik Detaylar

Kod :
General
Unique ID                                : 131002540712423711730821148725981870893 (0x628E2BEDA47997A53FC426B05071FB2D)
Complete name                            : /home/TheSteel/Desktop/2/Kaptan.Pengu.ve.Arkadaslari.2020.1080p.WEB-DL.x264.Filmbol.mkv
Format                                   : Matroska
Format version                           : Version 4
File size                                : 1.49 GiB
Duration                                 : 1 h 16 min
Overall bit rate                         : 2 774 kb/s
Movie name                               : Kaptan Pengu ve Arkadaşları: Mandalina'nın Günlüğü - Kaptan Pengu ve Arkadaslari - 2020 | Filmbol.org
Encoded date                             : UTC 2021-03-27 16:08:52
Writing application                      : mkvmerge v31.0.0 ('Dolores In A Shoestand') 64-bit
Writing library                          : libebml v1.3.6 + libmatroska v1.4.9

Video
ID                                       : 1
Format                                   : AVC
Format/Info                              : Advanced Video Codec
Format profile                           : [email protected]
Format settings                          : CABAC / 2 Ref Frames
Format settings, CABAC                   : Yes
Format settings, Reference frames        : 2 frames
Format settings, GOP                     : M=1, N=25
Codec ID                                 : V_MPEG4/ISO/AVC
Duration                                 : 1 h 16 min
Bit rate                                 : 2 388 kb/s
Width                                    : 1 916 pixels
Height                                   : 1 076 pixels
Display aspect ratio                     : 16:9
Frame rate mode                          : Constant
Frame rate                               : 24.000 FPS
Color space                              : YUV
Chroma subsampling                       : 4:2:0
Bit depth                                : 8 bits
Scan type                                : Progressive
Bits/(Pixel*Frame)                       : 0.048
Stream size                              : 1.28 GiB (86%)
Title                                    : Kaptan Pengu ve Arkadaşları: Mandalina'nın Günlüğü - Kaptan Pengu ve Arkadaslari - 2020 | Filmbol.org
Language                                 : English
Default                                  : Yes
Forced                                   : No

Audio
ID                                       : 2
Format                                   : AC-3
Format/Info                              : Audio Coding 3
Commercial name                          : Dolby Digital
Codec ID                                 : A_AC3
Duration                                 : 1 h 16 min
Bit rate mode                            : Constant
Bit rate                                 : 384 kb/s
Channel(s)                               : 6 channels
Channel layout                           : L R C LFE Ls Rs
Sampling rate                            : 48.0 kHz
Frame rate                               : 31.250 FPS (1536 SPF)
Compression mode                         : Lossy
Stream size                              : 211 MiB (14%)
Title                                    : Kaptan Pengu ve Arkadaşları: Mandalina'nın Günlüğü - Kaptan Pengu ve Arkadaslari - 2020 | Filmbol.org
Language                                 : Turkish
Service kind                             : Complete Main
Default                                  : Yes
Forced                                   : No

Film Detayları


 Kaptan Pengu ve Arkadaşları: Mandalina'nın Günlüğü

 Kaptan Pengu ve Arkadaşları: Mandalina'nın Günlüğü

 Kaptan Pengu ve Arkadaşları: Mandalina'nın Günlüğü


Film Fragmanı


Film Detayları

Uptobox ile indir

1Fichier ile indir

1Fichier'den İndiremiyor musun? Tıklayın!


Mega linki şuan da gizli. Kullanıma açmak için konuya yorum yapın ve ardından sayfayı yenileyin.

Mega


Bunun için üzgünüz ancak, bu linke sadece premium üyeler erişebilir.

Filmbol Cloud





Şuan Offine!
Şuan Offine!
ozan Yeni Üye
*
Üye

  • Konular0
  • Mesajlar1
  • Rep puanı 0
Merhaba
Şuan Online!
Şuan Online!
TheSteeL Süper Moderatör
*****
Süper Moderatör

(01-06-2021, Saat: 18:05)ozan Adlı Kullanıcıdan Alıntı: Merhaba
Selam İyi Seyirler


Hızlı Menü: