Filmbol Forum Film İndir 720P v Kaptan Pengu ve Arkadaşları: Mandalina'nın Günlüğü (Kaptan Pengu ve Arkadaslari) - 2020 - TR+ORG - 720P | tt11576180
Mega linklerinin şikayet edilmemesi için global erişime kapatıp sadece yorum yapanlara açıyoruz. Bu linkleri gizleme işlemini mecburen yapıyoruz ve yorum yapmanızın siteye değil size faydası vardır. Teşekürler yazmayı çok görüp, Random/Spam mesajlar atarak Mega linklerini açmaya çalışan kullanıcılara önce süresiz ban, devam ederse IP ban atacağız.
Filmbol'da moderatör olmak ister misiniz? Bizimle iletişime geçmek için tıklayın!
Kaptan Pengu ve Arkadaşları: Mandalina'nın Günlüğü (Kaptan Pengu ve Arkadaslari) - 2020 - TR+ORG - 720P | tt11576180
TheSteeL
Kaptan Pengu ve Arkadaşları: Mandalina'nın Günlüğü (Kaptan Pengu ve Arkadaslari) - 2020 - TR+ORG - 720P | tt11576180
0
37
  • Derecelendirme: 0/5 - 0 oy
  • 1
  • 2
  • 3
  • 4
  • 5
Konuyu Okuyanlar:1 Ziyaretçi
Şuan Online!
Filmin Yayınlanma Tarihi: 2020 
WWW
Şuan Online!
TheSteeL Süper Moderatör
*****
Süper Moderatör



 Kaptan Pengu ve Arkadaşları: Mandalina'nın Günlüğü



Kaptan Pengu ve Arkadaşları animasyon filmi, yine aynı isimle yayınlanan çizgi dizinin beyazperdeye taşınmış hali olarak karşımıza çıkıyor. Küresel ısınma ve buzulların erimesine dikkat çekerken eğlenceli şekilde bir maceraya atılan Kaptan Pengu'nun hayatını işleyen animasyon filminde Pengu'nun evini terk etme sebebi de arkadaşlarından birinin eriyen buzullar içinde kaybolup gitmesi oluyor. Ana hedefi arkadaşını bulmak olsa da, bunu yaparken birçok maceraya atılıyor...

Kaptan Pengu ve Arkadaşları: Mandalina'nın Günlüğü (2020) (Kaptan Pengu ve Arkadaslari) | tt11576180 Filmi Imdb'den 16 kişi tarafından oylandı ve 5,1 puan aldı. Bu film için editör puanı %47 olarak belirlendi. İyi Seyirler!

Teknik Detaylar

Kod :
General
Unique ID                                : 231693497276331031707062494852256073341 (0xAE4E8B5FEC74C0834EB9BA0B768F867D)
Complete name                            : /home/TheSteel/Desktop/2/Kaptan.Pengu.ve.Arkadaslari.2020.720p.WEB-DL.x264.Filmbol.mkv
Format                                   : Matroska
Format version                           : Version 4
File size                                : 1.06 GiB
Duration                                 : 1 h 16 min
Overall bit rate                         : 1 983 kb/s
Movie name                               : Kaptan Pengu ve Arkadaşları: Mandalina'nın Günlüğü - Kaptan Pengu ve Arkadaslari - 2020 | Filmbol.org
Encoded date                             : UTC 2021-03-27 16:11:20
Writing application                      : mkvmerge v31.0.0 ('Dolores In A Shoestand') 64-bit
Writing library                          : libebml v1.3.6 + libmatroska v1.4.9

Video
ID                                       : 1
Format                                   : AVC
Format/Info                              : Advanced Video Codec
Format profile                           : [email protected]
Format settings                          : CABAC / 2 Ref Frames
Format settings, CABAC                   : Yes
Format settings, Reference frames        : 2 frames
Format settings, GOP                     : M=1, N=25
Codec ID                                 : V_MPEG4/ISO/AVC
Duration                                 : 1 h 16 min
Bit rate                                 : 1 597 kb/s
Width                                    : 1 280 pixels
Height                                   : 718 pixels
Display aspect ratio                     : 16:9
Frame rate mode                          : Constant
Frame rate                               : 24.000 FPS
Color space                              : YUV
Chroma subsampling                       : 4:2:0
Bit depth                                : 8 bits
Scan type                                : Progressive
Bits/(Pixel*Frame)                       : 0.072
Stream size                              : 876 MiB (81%)
Title                                    : Kaptan Pengu ve Arkadaşları: Mandalina'nın Günlüğü - Kaptan Pengu ve Arkadaslari - 2020 | Filmbol.org
Language                                 : English
Default                                  : Yes
Forced                                   : No

Audio
ID                                       : 2
Format                                   : AC-3
Format/Info                              : Audio Coding 3
Commercial name                          : Dolby Digital
Codec ID                                 : A_AC3
Duration                                 : 1 h 16 min
Bit rate mode                            : Constant
Bit rate                                 : 384 kb/s
Channel(s)                               : 6 channels
Channel layout                           : L R C LFE Ls Rs
Sampling rate                            : 48.0 kHz
Frame rate                               : 31.250 FPS (1536 SPF)
Compression mode                         : Lossy
Stream size                              : 211 MiB (19%)
Title                                    : Kaptan Pengu ve Arkadaşları: Mandalina'nın Günlüğü - Kaptan Pengu ve Arkadaslari - 2020 | Filmbol.org
Language                                 : Turkish
Service kind                             : Complete Main
Default                                  : Yes
Forced                                   : No

Film Detayları


 Kaptan Pengu ve Arkadaşları: Mandalina'nın Günlüğü

 Kaptan Pengu ve Arkadaşları: Mandalina'nın Günlüğü

 Kaptan Pengu ve Arkadaşları: Mandalina'nın Günlüğü


Film Fragmanı


Film Detayları

Uptobox ile indir

1Fichier ile indir

1Fichier'den İndiremiyor musun? Tıklayın!


Mega linki şuan da gizli. Kullanıma açmak için konuya yorum yapın ve ardından sayfayı yenileyin.

Mega


Bunun için üzgünüz ancak, bu linke sadece premium üyeler erişebilir.

Filmbol Cloud







Konu ile Alakalı Benzer Konular
Konular Yazar Yorumlar Okunma Son Yorum
Filmin Yayınlanma Tarihi: 2015
Yeni Ahit (Le tout nouveau testament) - 2015 - TR+ORG - 720P | tt3792960 TheSteeL 0 6 , Saat: 23:52
Son Yorum: TheSteeL
Filmin Yayınlanma Tarihi: 2015
Diriliş (The Revenant) - 2015 - TR+ORG - 720P | tt1663202 BroserBros 7 3,664 , Saat: 19:42
Son Yorum: BroserBros
Filmin Yayınlanma Tarihi: 2018
Adalet 2 (The Equalizer 2) - 2018 - TR+ORG - 720P | tt3766354 BroserBros 1 723 , Saat: 19:30
Son Yorum: BroserBros
Filmin Yayınlanma Tarihi: 2019
Aslan Kral (The Lion King) - 2019 - TR+ORG - 720P | tt6105098 BroserBros 24 4,204 , Saat: 19:18
Son Yorum: BroserBros
Filmin Yayınlanma Tarihi: 2015
Ters Yüz (Inside Out) - 2015 - TR+ORG - 720P | tt2096673 BroserBros 10 7,059 , Saat: 19:07
Son Yorum: BroserBros

Hızlı Menü: