Filmbol Forum Film İndir BRRip XviD v Kaptan Pengu ve Arkadaşları: Mandalina'nın Günlüğü (Kaptan Pengu ve Arkadaslari) - 2020 - TR - BRRip XviD | tt11576180
Bildirimi Kapat
Server kaynaklı problemden dolayı ciddi bir sorun yaşadık. Şuanda forum ve portal aktif halde ancak bazı problemler hala devam ediyor. Problem gördüğünüz yerleri bize bildirmeniz çok önemli. Teşekkürler.

Bildirimi Kapat
Merhaba , site giderlerini bir nebze olsun karşılamak adına link kısaltma servisleri kullanmaya başladık. İndirme linkleri sizi ouo.io adresinde yönlendirecek, 3 saniye geçtikten sonra Get Link butonuna tıklayarak linke ulaşacaksınız. Premium üyeler bu durumdan etkilenmeyecektir.


Premium Üyelik Al

Kaptan Pengu ve Arkadaşları: Mandalina'nın Günlüğü (Kaptan Pengu ve Arkadaslari) - 2020 - TR - BRRip XviD | tt11576180
TheSteeL
Kaptan Pengu ve Arkadaşları: Mandalina'nın Günlüğü (Kaptan Pengu ve Arkadaslari) - 2020 - TR - BRRip XviD | tt11576180
2
138
  • Derecelendirme: 0/5 - 0 oy
  • 1
  • 2
  • 3
  • 4
  • 5
Konuyu Okuyanlar:1 Ziyaretçi
Şuan Online!
Filmin Yayınlanma Tarihi: 2020 
Şuan Online!
TheSteeL Chief Executive Officer
******
CEO



 Kaptan Pengu ve Arkadaşları: Mandalina'nın Günlüğü



Kaptan Pengu ve Arkadaşları animasyon filmi, yine aynı isimle yayınlanan çizgi dizinin beyazperdeye taşınmış hali olarak karşımıza çıkıyor. Küresel ısınma ve buzulların erimesine dikkat çekerken eğlenceli şekilde bir maceraya atılan Kaptan Pengu'nun hayatını işleyen animasyon filminde Pengu'nun evini terk etme sebebi de arkadaşlarından birinin eriyen buzullar içinde kaybolup gitmesi oluyor. Ana hedefi arkadaşını bulmak olsa da, bunu yaparken birçok maceraya atılıyor...

Kaptan Pengu ve Arkadaşları: Mandalina'nın Günlüğü (2020) (Kaptan Pengu ve Arkadaslari) | tt11576180 Filmi Imdb'den 16 kişi tarafından oylandı ve 5,1 puan aldı. Bu film için editör puanı %47 olarak belirlendi. İyi Seyirler!

Teknik Detaylar

Kod :
General
Unique ID                                : 8298186772238732427174266921209502564 (0x63E2C320FBBDDC19C53C93602171B64)
Complete name                            : /home/TheSteel/Desktop/2/Kaptan.Pengu.ve.Arkadaslari.2020.HDRip.XViD.Filmbol.avi
Format                                  : Matroska
Format version                          : Version 4
File size                                : 727 MiB
Duration                                : 1 h 16 min
Overall bit rate                        : 1 325 kb/s
Movie name                              : Kaptan Pengu ve Arkadaşları: Mandalina'nın Günlüğü - Kaptan Pengu ve Arkadaslari - 2020 | Filmbol.org
Encoded date                            : UTC 2021-03-27 16:12:54
Writing application                      : mkvmerge v31.0.0 ('Dolores In A Shoestand') 64-bit
Writing library                          : libebml v1.3.6 + libmatroska v1.4.9
FileExtension_Invalid                    : mkv mk3d mka mks

Video
ID                                      : 1
Format                                  : MPEG-4 Visual
Format profile                          : Advanced [email protected]
Format settings                          : BVOP1
Format settings, BVOP                    : 1
Format settings, QPel                    : No
Format settings, GMC                    : No warppoints
Format settings, Matrix                  : Default (MPEG)
Muxing mode                              : Packed bitstream
Codec ID                                : V_MS/VFW/FOURCC / XVID
Codec ID/Hint                            : XviD
Duration                                : 1 h 16 min
Bit rate                                : 1 195 kb/s
Width                                    : 720 pixels
Height                                  : 404 pixels
Display aspect ratio                    : 16:9
Frame rate mode                          : Constant
Frame rate                              : 24.000 FPS
Color space                              : YUV
Chroma subsampling                      : 4:2:0
Bit depth                                : 8 bits
Scan type                                : Progressive
Compression mode                        : Lossy
Bits/(Pixel*Frame)                      : 0.171
Stream size                              : 655 MiB (90%)
Title                                    : Kaptan Pengu ve Arkadaşları: Mandalina'nın Günlüğü - Kaptan Pengu ve Arkadaslari - 2020 | Filmbol.org
Writing library                          : XviD 64
Default                                  : Yes
Forced                                  : No

Audio
ID                                      : 2
Format                                  : MPEG Audio
Format version                          : Version 1
Format profile                          : Layer 3
Format settings                          : Joint stereo / MS Stereo
Codec ID                                : A_MPEG/L3
Codec ID/Hint                            : MP3
Duration                                : 1 h 16 min
Bit rate mode                            : Constant
Bit rate                                : 128 kb/s
Channel(s)                              : 2 channels
Sampling rate                            : 48.0 kHz
Frame rate                              : 41.667 FPS (1152 SPF)
Compression mode                        : Lossy
Stream size                              : 70.2 MiB (10%)
Title                                    : Kaptan Pengu ve Arkadaşları: Mandalina'nın Günlüğü - Kaptan Pengu ve Arkadaslari - 2020 | Filmbol.org
Writing library                          : LAME3.99.5
Default                                  : Yes
Forced                                  : No

Film Detayları


 Kaptan Pengu ve Arkadaşları: Mandalina'nın Günlüğü

 Kaptan Pengu ve Arkadaşları: Mandalina'nın Günlüğü

 Kaptan Pengu ve Arkadaşları: Mandalina'nın Günlüğü


Film Fragmanı


Film İndir



Zip Şifresi: filmbol.org Aşağıdaki butona tıklayarak kopyalabilirsiniz.



Uptobox ile indir

1Fichier ile indir

1Fichier'den İndiremiyor musun? Tıklayın!





Filmbol Cloud

Bunun için üzgünüz ancak, bu linke sadece premium üyeler erişebilir.




WWW
Şuan Offine!
Şuan Offine!
asdasdasdasd Cezalı Üye
  • Konular0
  • Mesajlar3
selam. her film için yorum mu yzıcaz yani?
Şuan Online!
Şuan Online!
TheSteeL Chief Executive Officer
******
CEO
(27-04-2021, Saat: 20:27)asdasdasdasd Adlı Kullanıcıdan Alıntı: selam. her film için yorum mu yzıcaz yani?
Mega linklerinin şikayet edilmemesi için global erişime kapatıp sadece yorum yapanlara açıyoruz Bu Yüzden Mega Linkleri Yorum Yapıldığında Açılıyor Bize Bi Faydası Yok İyi Seyirler


Hızlı Menü: