⤤ Premium'a Yükselt

Merhaba, Ziyaretçi. Mega linklerinin bir kısmı deaktif halde ve yenileme çalışmalarına başladık. Bu süre içinde ikinci duyuruya kadar mega linklerini raporlamayın!! x

Filmbol Forum Film İndir 1080P v Dövüş Kulübü (Fight Club) - 1999 - TR+ORG - 1080P | tt0137523

Filmbol TV kullanıma açıldı. Bu adresten giriş yapabilirsin: Giriş





Dövüş Kulübü (Fight Club) - 1999 - TR+ORG - 1080P | tt0137523
BroserBros
Dövüş Kulübü (Fight Club) - 1999 - TR+ORG - 1080P | tt0137523
30
2329
  • Derecelendirme: 0/5 - 0 oy
  • 1
  • 2
  • 3
  • 4
  • 5
Konuyu Okuyanlar:2 Ziyaretçi
Şuan Online!
Filmin Yayınlanma Tarihi: 1999 
WWW
Rapor Et!
Şuan Online!
BroserBros Kurucu Admin
*******
Admin



 Dövüş Kulübü



Jack hayatını memur olarak devam ettiren sıradan bir insandır. Ancak bu sıradanlık Jack'in istediği yaşantı değildir ve bu durumdan şikayetçi olurken bir yandan da uykusuzluk sorunu çekmektedir. Hergün işe uykusuz giden Jack, ruh halinin bozuk olduğunu düşünür ve garip terapilere katılır. Burada hayatını tamamen değiştirecek biriyle tanışır, Marla. Marla jack gibi değildir, o hayatı sıradan yaşamaz. Daha sonra ise aslında hayatını değiştirecek kişi ile tanışır. Onun ismi ise Tyler Durden'dir. Tyler'ın hayatı tam da jack'in istediği gibidir ve jack bu duruma özenir. Tyler ile takılmaya başlayan Jack, yeni iki kural öğrenir; Dövüş Kulübü hakkında konuşma. Asla ama asla Dövüş Kulübü hakkında konuşma. Bu iki kuralı öğrendikten sonra Jack, Dövüş Kulübüne katılır. Galiba aradığı hayatı bulmuştur...

Dövüş Kulübü (1999) (Fight Club) | tt0137523 Filmi Imdb'den 1,860,000 kişi tarafından oylandı ve 8,8 puan aldı. Bu film için editör puanı %95 olarak belirlendi. İyi Seyirler!

Teknik Detaylar

Kod :
General
Unique ID                                : 68575533332014257618283856789181312070 (0x33972AD4CE0E1EDD176B8FFE72442C46)
Complete name                            : /home/BroserBros/Desktop/3/Dövüş.Kulubü.10th.Anniversary.Edition.1999.1080p.BluRay.x264.TR.ENG.Filmbol.mkv
Format                                   : Matroska
Format version                           : Version 4
File size                                : 2.47 GiB
Duration                                 : 2 h 19 min
Overall bit rate                         : 2 544 kb/s
Movie name                               : Dövüş Kulubü - Fight Club - 1999 | Filmbol.org
Encoded date                             : UTC 2021-02-28 13:39:47
Writing application                      : mkvmerge v53.0.0 ('Fool's Gold') 64-bit
Writing library                          : libebml v1.4.1 + libmatroska v1.6.2

Video
ID                                       : 1
Format                                   : AVC
Format/Info                              : Advanced Video Codec
Format profile                           : [email protected]
Format settings                          : CABAC / 4 Ref Frames
Format settings, CABAC                   : Yes
Format settings, Reference frames        : 4 frames
Codec ID                                 : V_MPEG4/ISO/AVC
Duration                                 : 2 h 19 min
Bit rate                                 : 1 806 kb/s
Width                                    : 1 920 pixels
Height                                   : 800 pixels
Display aspect ratio                     : 2.40:1
Frame rate mode                          : Constant
Frame rate                               : 23.976 (24000/1001) FPS
Color space                              : YUV
Chroma subsampling                       : 4:2:0
Bit depth                                : 8 bits
Scan type                                : Progressive
Bits/(Pixel*Frame)                       : 0.049
Stream size                              : 1.75 GiB (71%)
Title                                    : 1080P - Filmbol.org
Writing library                          : x264 core 125 r2200 999b753
Encoding settings                        : cabac=1 / ref=3 / deblock=1:0:0 / analyse=0x3:0x113 / me=hex / subme=7 / psy=1 / psy_rd=1.00:0.00 / mixed_ref=1 / me_range=16 / chroma_me=1 / trellis=1 / 8x8dct=1 / cqm=0 / deadzone=21,11 / fast_pskip=1 / chroma_qp_offset=-2 / threads=12 / lookahead_threads=2 / sliced_threads=0 / nr=0 / decimate=1 / interlaced=0 / bluray_compat=0 / constrained_intra=0 / bframes=3 / b_pyramid=2 / b_adapt=1 / b_bias=0 / direct=1 / weightb=1 / open_gop=0 / weightp=2 / keyint=240 / keyint_min=23 / scenecut=40 / intra_refresh=0 / rc_lookahead=40 / rc=2pass / mbtree=1 / bitrate=1806 / ratetol=1.0 / qcomp=0.60 / qpmin=10 / qpmax=51 / qpstep=4 / cplxblur=20.0 / qblur=0.5 / ip_ratio=1.40 / aq=1:1.00
Default                                  : Yes
Forced                                   : No

Audio #1
ID                                       : 2
Format                                   : AC-3
Format/Info                              : Audio Coding 3
Commercial name                          : Dolby Digital
Codec ID                                 : A_AC3
Duration                                 : 2 h 19 min
Bit rate mode                            : Constant
Bit rate                                 : 640 kb/s
Channel(s)                               : 6 channels
Channel layout                           : L R C LFE Ls Rs
Sampling rate                            : 48.0 kHz
Frame rate                               : 31.250 FPS (1536 SPF)
Compression mode                         : Lossy
Stream size                              : 637 MiB (25%)
Title                                    : Türkçe - Filmbol.org
Language                                 : Turkish
Service kind                             : Complete Main
Default                                  : Yes
Forced                                   : No

Audio #2
ID                                       : 3
Format                                   : AAC LC
Format/Info                              : Advanced Audio Codec Low Complexity
Codec ID                                 : A_AAC-2
Duration                                 : 2 h 19 min
Bit rate                                 : 96.0 kb/s
Channel(s)                               : 2 channels
Channel layout                           : L R
Sampling rate                            : 48.0 kHz
Frame rate                               : 46.875 FPS (1024 SPF)
Compression mode                         : Lossy
Stream size                              : 95.5 MiB (4%)
Title                                    : Orjinal Dil - Filmbol.org
Language                                 : English
Default                                  : No
Forced                                   : No

Text
ID                                       : 4
Format                                   : UTF-8
Codec ID                                 : S_TEXT/UTF8
Codec ID/Info                            : UTF-8 Plain Text
Duration                                 : 2 h 13 min
Bit rate                                 : 77 b/s
Count of elements                        : 1732
Stream size                              : 75.9 KiB (0%)
Title                                    : Türkçe Altyazı - Filmbol.org
Default                                  : No
Forced                                   : No

Film Detayları


 Dövüş Kulübü

 Dövüş Kulübü

 Dövüş Kulübü


Film Fragmanı


Film İndir


Rar Şifresi: filmbol.org


Uptobox ile indir

1Fichier ile indir

1Fichier'den İndiremiyor musun? Tıklayın!












Şuan Offine!
Rapor Et!
Şuan Offine!
caner Süper Üye
***
Super Üye
  • Konular0
  • Mesajlar51
  • Rep puanı 0
teşekkürler
Şuan Offine!
Rapor Et!
Şuan Offine!
dijital26 Üye
*
Üye
  • Konular0
  • Mesajlar3
  • Rep puanı 0
teşekkür ederim.
Şuan Online!
Rapor Et!
Şuan Online!
BroserBros Kurucu Admin
*******
Admin
02.03.2021 Yönetici Notu:

Kırık linkler kontrol edildi, kaldırıldı ve yenilendi. Tüm linkler tamamen çalışır durumda.
Şuan Offine!
Rapor Et!
Şuan Offine!
PYRO Üye
*
Üye
  • Konular0
  • Mesajlar24
  • Rep puanı 0
Teşekkürler.
Şuan Offine!
Rapor Et!
Şuan Offine!
ruobab Üye
*
Üye
  • Konular0
  • Mesajlar34
  • Rep puanı 0
Teşekkürler.
Şuan Offine!
Rapor Et!
Şuan Offine!
kbbyakaza Üye
*
Üye
  • Konular0
  • Mesajlar59
  • Rep puanı 0
Teşekkürler.
Şuan Offine!
Rapor Et!
Şuan Offine!
ahleten Uzman Üye
**
Uzman Üye
  • Konular0
  • Mesajlar180
  • Rep puanı 0
Teşekkürler.
Şuan Offine!
Rapor Et!
Şuan Offine!
atesergun01 Üye
*
Üye
  • Konular0
  • Mesajlar16
  • Rep puanı 0
Teşekkürler.
Şuan Offine!
Rapor Et!
Şuan Offine!
Mehmet Yöney Uzman Üye
**
Uzman Üye
  • Konular0
  • Mesajlar29
  • Rep puanı 0
Teşekkürler.


Hızlı Menü: