⤤ Premium'a Yükselt

Merhaba, Ziyaretçi. Mega linklerinin bir kısmı deaktif halde ve yenileme çalışmalarına başladık. Bu süre içinde ikinci duyuruya kadar mega linklerini raporlamayın!! x

Filmbol Forum Film İndir BRRip XviD v Dövüş Kulübü (Fight Club) - 1999 - TR - BRRip XviD | tt0137523

Filmbol TV kullanıma açıldı. Bu adresten giriş yapabilirsin: Giriş





Dövüş Kulübü (Fight Club) - 1999 - TR - BRRip XviD | tt0137523
BroserBros
Dövüş Kulübü (Fight Club) - 1999 - TR - BRRip XviD | tt0137523
4
991
  • Derecelendirme: 0/5 - 0 oy
  • 1
  • 2
  • 3
  • 4
  • 5
Konuyu Okuyanlar:3 Ziyaretçi
Şuan Online!
Filmin Yayınlanma Tarihi: 1999 
WWW
Rapor Et!
Şuan Online!
BroserBros Kurucu Admin
*******
Admin



 Dövüş Kulübü



Jack hayatını memur olarak devam ettiren sıradan bir insandır. Ancak bu sıradanlık Jack'in istediği yaşantı değildir ve bu durumdan şikayetçi olurken bir yandan da uykusuzluk sorunu çekmektedir. Hergün işe uykusuz giden Jack, ruh halinin bozuk olduğunu düşünür ve garip terapilere katılır. Burada hayatını tamamen değiştirecek biriyle tanışır, Marla. Marla jack gibi değildir, o hayatı sıradan yaşamaz. Daha sonra ise aslında hayatını değiştirecek kişi ile tanışır. Onun ismi ise Tyler Durden'dir. Tyler'ın hayatı tam da jack'in istediği gibidir ve jack bu duruma özenir. Tyler ile takılmaya başlayan Jack, yeni iki kural öğrenir; Dövüş Kulübü hakkında konuşma. Asla ama asla Dövüş Kulübü hakkında konuşma. Bu iki kuralı öğrendikten sonra Jack, Dövüş Kulübüne katılır. Galiba aradığı hayatı bulmuştur...

Dövüş Kulübü (1999) (Fight Club) | tt0137523 Filmi Imdb'den 1,860,000 kişi tarafından oylandı ve 8,8 puan aldı. Bu film için editör puanı %95 olarak belirlendi. İyi Seyirler!

Teknik Detaylar

Kod :
General
Complete name                            : /home/BroserBros/Desktop/3/Dövüş.Külubü.1999.BRRip.XViD.TR.Filmbol.avi
Format                                   : AVI
Format/Info                              : Audio Video Interleave
File size                                : 772 MiB
Duration                                 : 2 h 13 min
Overall bit rate                         : 809 kb/s

Video
ID                                       : 0
Format                                   : MPEG-4 Visual
Format settings                          : BVOP
Format settings, BVOP                    : Yes
Format settings, QPel                    : No
Format settings, GMC                     : No warppoints
Format settings, Matrix                  : Default (H.263)
Codec ID                                 : FMP4
Duration                                 : 2 h 13 min
Bit rate                                 : 604 kb/s
Width                                    : 640 pixels
Height                                   : 288 pixels
Display aspect ratio                     : 2.222
Frame rate                               : 25.000 FPS
Color space                              : YUV
Chroma subsampling                       : 4:2:0
Bit depth                                : 8 bits
Scan type                                : Progressive
Compression mode                         : Lossy
Bits/(Pixel*Frame)                       : 0.131
Stream size                              : 576 MiB (75%)

Audio
ID                                       : 1
Format                                   : MPEG Audio
Format version                           : Version 1
Format profile                           : Layer 3
Codec ID                                 : 55
Codec ID/Hint                            : MP3
Duration                                 : 1 h 27 min
Source duration                          : 2 h 13 min
Bit rate mode                            : Constant
Bit rate                                 : 192 kb/s
Channel(s)                               : 2 channels
Sampling rate                            : 44.1 kHz
Compression mode                         : Lossy
Stream size                              : 183 MiB (24%)
Alignment                                : Aligned on interleaves
Interleave, duration                     : 26  ms (0.65 video frame)

Film Detayları


 Dövüş Kulübü

 Dövüş Kulübü

 Dövüş Kulübü


Film Fragmanı


Film İndir


Rar Şifresi: filmbol.org



Uptobox ile indir

1Fichier ile indir

1Fichier'den İndiremiyor musun? Tıklayın!












Şuan Online!
Rapor Et!
Şuan Online!
BroserBros Kurucu Admin
*******
Admin
02.03.2021 Yönetici Notu:

Kırık linkler kontrol edildi, kaldırıldı ve yenilendi. Tüm linkler tamamen çalışır durumda.
Şuan Offine!
Rapor Et!
Şuan Offine!
Furkan61 Cezalı Üye
  • Konular0
  • Mesajlar288
elinize sağlık
Şuan Offine!
Rapor Et!
Şuan Offine!
Casablanca Üye
*
Üye
  • Konular0
  • Mesajlar110
  • Rep puanı 0
Teşekkürler.
Şuan Offine!
Rapor Et!
Şuan Offine!
ben_y_are_n Üye
*
Üye
  • Konular0
  • Mesajlar1
  • Rep puanı 0
Teşekkürler.


Hızlı Menü: