Filmbol Forum Film İndir 720P v Demir Adam 2 (Iron Man 2) - 2010 - TR+ORG - 720P | tt1228705
Mega linklerinin şikayet edilmemesi için global erişime kapatıp sadece yorum yapanlara açıyoruz. Bu linkleri gizleme işlemini mecburen yapıyoruz ve yorum yapmanızın siteye değil size faydası vardır. Teşekürler yazmayı çok görüp, Random/Spam mesajlar atarak Mega linklerini açmaya çalışan kullanıcılara önce süresiz ban, devam ederse IP ban atacağız.
Filmbol'da moderatör olmak ister misiniz? Bizimle iletişime geçmek için tıklayın!
Demir Adam 2 (Iron Man 2) - 2010 - TR+ORG - 720P | tt1228705
BroserBros
Demir Adam 2 (Iron Man 2) - 2010 - TR+ORG - 720P | tt1228705
7
3829
  • Derecelendirme: 0/5 - 0 oy
  • 1
  • 2
  • 3
  • 4
  • 5
Konuyu Okuyanlar:1 Ziyaretçi
Şuan Online!
Filmin Yayınlanma Tarihi: 2010 
WWW
Şuan Online!
BroserBros Kurucu Admin
*******
Admin



 Demir Adam 2



Dünyada Iron Man (Demir Adam) Kimliğinin farkında olan Tony Stark, Babasının mirasından güç alan intikamcı bir adam ile savaşmalı.

Demir Adam 2 (2010) (Iron Man 2) | tt1228705 Filmi Imdb'den 730,000 kişi tarafından oylandı ve 7,0 puan aldı. Bu film için editör puanı %87 olarak belirlendi. İyi Seyirler!

Teknik Detaylar

Kod :
General
Unique ID                                : 75248133579769515172098655380988582868 (0x389C436C59D1CC79A310D9F3C7115BD4)
Complete name                            : /home/BroserBros/Desktop/6/Demir.Adam.2.2010.720p.BluRay.x264.TR.ENG.Filmbol.mkv
Format                                   : Matroska
Format version                           : Version 4
File size                                : 1.42 GiB
Duration                                 : 2 h 4 min
Overall bit rate                         : 1 628 kb/s
Movie name                               : Demir Adam 2 - Iron Man 2 - 2010 | Filmbol.org
Encoded date                             : UTC 2021-03-14 12:01:16
Writing application                      : mkvmerge v53.0.0 ('Fool's Gold') 64-bit
Writing library                          : libebml v1.4.1 + libmatroska v1.6.2

Video
ID                                       : 1
Format                                   : AVC
Format/Info                              : Advanced Video Codec
Format profile                           : [email protected]
Format settings                          : CABAC / 4 Ref Frames
Format settings, CABAC                   : Yes
Format settings, Reference frames        : 4 frames
Codec ID                                 : V_MPEG4/ISO/AVC
Duration                                 : 2 h 4 min
Bit rate                                 : 900 kb/s
Width                                    : 1 402 pixels
Height                                   : 596 pixels
Display aspect ratio                     : 2.35:1
Frame rate mode                          : Constant
Frame rate                               : 23.976 (24000/1001) FPS
Color space                              : YUV
Chroma subsampling                       : 4:2:0
Bit depth                                : 8 bits
Scan type                                : Progressive
Bits/(Pixel*Frame)                       : 0.045
Stream size                              : 796 MiB (55%)
Title                                    : Demir Adam 2 - Iron Man 2 - 2010 | Filmbol.org
Writing library                          : x264 core 157
Encoding settings                        : cabac=1 / ref=3 / deblock=1:0:0 / analyse=0x3:0x133 / me=hex / subme=7 / psy=1 / psy_rd=1.00:0.00 / mixed_ref=1 / me_range=16 / chroma_me=1 / trellis=1 / 8x8dct=1 / cqm=0 / deadzone=21,11 / fast_pskip=1 / chroma_qp_offset=-2 / threads=9 / lookahead_threads=1 / sliced_threads=0 / nr=0 / decimate=1 / interlaced=0 / bluray_compat=0 / constrained_intra=0 / bframes=3 / b_pyramid=2 / b_adapt=1 / b_bias=0 / direct=1 / weightb=1 / open_gop=0 / weightp=2 / keyint=250 / keyint_min=25 / scenecut=40 / intra_refresh=0 / rc_lookahead=40 / rc=abr / mbtree=1 / bitrate=900 / ratetol=1.0 / qcomp=0.60 / qpmin=10 / qpmax=51 / qpstep=4 / ip_ratio=1.40 / aq=1:1.00
Default                                  : Yes
Forced                                   : No

Audio #1
ID                                       : 2
Format                                   : AC-3
Format/Info                              : Audio Coding 3
Commercial name                          : Dolby Digital
Codec ID                                 : A_AC3
Duration                                 : 2 h 4 min
Bit rate mode                            : Constant
Bit rate                                 : 640 kb/s
Channel(s)                               : 6 channels
Channel layout                           : L R C LFE Ls Rs
Sampling rate                            : 48.0 kHz
Frame rate                               : 31.250 FPS (1536 SPF)
Compression mode                         : Lossy
Delay relative to video                  : 17 ms
Stream size                              : 571 MiB (39%)
Title                                    : Demir Adam 2 - Iron Man 2 - 2010 | Filmbol.org
Language                                 : Turkish
Service kind                             : Complete Main
Default                                  : Yes
Forced                                   : No

Audio #2
ID                                       : 3
Format                                   : AAC LC
Format/Info                              : Advanced Audio Codec Low Complexity
Codec ID                                 : A_AAC-2
Duration                                 : 2 h 4 min
Bit rate                                 : 92.0 kb/s
Channel(s)                               : 2 channels
Channel layout                           : L R
Sampling rate                            : 48.0 kHz
Frame rate                               : 46.875 FPS (1024 SPF)
Compression mode                         : Lossy
Delay relative to video                  : -83 ms
Stream size                              : 82.0 MiB (6%)
Title                                    : Demir Adam 2 - Iron Man 2 - 2010 | Filmbol.org
Language                                 : Turkish
Default                                  : No
Forced                                   : No

Text
ID                                       : 4
Format                                   : UTF-8
Codec ID                                 : S_TEXT/UTF8
Codec ID/Info                            : UTF-8 Plain Text
Duration                                 : 2 h 4 min
Bit rate                                 : 55 b/s
Count of elements                        : 1446
Stream size                              : 50.2 KiB (0%)
Title                                    : Demir Adam 2 - Iron Man 2 - 2010 | Filmbol.org
Default                                  : Yes
Forced                                   : No

Film Detayları


 Demir Adam 2

 Demir Adam 2

 Demir Adam 2


Film Fragmanı


Film Detayları

Uptobox ile indir

1Fichier ile indir

1Fichier'den İndiremiyor musun? Tıklayın!


Mega linki şuan da gizli. Kullanıma açmak için konuya yorum yapın ve ardından sayfayı yenileyin.

Mega


Bunun için üzgünüz ancak, bu linke sadece premium üyeler erişebilir.

Filmbol Cloud





Şuan Offine!
Şuan Offine!
isayhan Süper Üye
***
Super Üye

  • Konular0
  • Mesajlar28
  • Rep puanı 0
paylaşım için teşekkürler
Şuan Offine!
Şuan Offine!
evenstar Uzman Üye
**
Uzman Üye

  • Konular0
  • Mesajlar22
  • Rep puanı 0
sssss
Şuan Offine!
Şuan Offine!
osmnn Yeni Üye
*
Üye

  • Konular0
  • Mesajlar5
  • Rep puanı 0
Ssssss
Şuan Offine!
Şuan Offine!
Yusuf0zel Yeni Üye
*
Üye

  • Konular0
  • Mesajlar3
  • Rep puanı 0
guzel bir film
Şuan Offine!
Şuan Offine!
cictatanga Uzman Üye
**
Uzman Üye

  • Konular0
  • Mesajlar17
  • Rep puanı 0
site çok iyi
Şuan Online!
Şuan Online!
BroserBros Kurucu Admin
*******
Admin

16.03.2021 Yönetici Notu:

Kırık linkler kontrol edildi, kaldırıldı ve yenilendi. Tüm linkler tamamen çalışır durumda.
Şuan Online!
Şuan Online!
denizyesilova00 Uzman Üye
**
Uzman Üye

  • Konular0
  • Mesajlar15
  • Rep puanı 0
emekleriniz icin teekkurler


Konu ile Alakalı Benzer Konular
Konular Yazar Yorumlar Okunma Son Yorum
Filmin Yayınlanma Tarihi: 2017
Örümcek-Adam: Eve Dönüş (Spider-Man: Homecoming) - 2017 - TR+ORG - 720P | tt2250912 BroserBros 11 1,415 33 dakika önce
Son Yorum: denizyesilova00
Filmin Yayınlanma Tarihi: 2015
Karınca Adam (Ant-Man) - 2015 - TR+ORG - 720P | tt0478970 BroserBros 4 1,929 38 dakika önce
Son Yorum: denizyesilova00
Filmin Yayınlanma Tarihi: 2016
Kaptan Amerika: Kahramanların Savaşı (Captain America: Civil War) - 2016 - TR+ORG - 720P | tt3498820 BroserBros 5 5,327 39 dakika önce
Son Yorum: denizyesilova00
Filmin Yayınlanma Tarihi: 2015
Yenilmezler: Ultron Çağı (Avengers: Age of Ultron) - 2015 - TR+ORG - 720P | tt2395427 BroserBros 8 5,989 2 saat önce
Son Yorum: denizyesilova00
Filmin Yayınlanma Tarihi: 2017
Galaksinin Koruyucuları 2 (Guardians of the Galaxy Vol. 2) - 2017 - TR+ORG - 720P | tt3896198 BroserBros 3 453 2 saat önce
Son Yorum: denizyesilova00

Hızlı Menü: