Filmbol Forum Film İndir 1080P v Demir Adam 2 (Iron Man 2) - 2010 - TR+ORG - 1080P | tt1228705
Mega linklerinin şikayet edilmemesi için global erişime kapatıp sadece yorum yapanlara açıyoruz. Bu linkleri gizleme işlemini mecburen yapıyoruz ve yorum yapmanızın siteye değil size faydası vardır. Teşekürler yazmayı çok görüp, Random/Spam mesajlar atarak Mega linklerini açmaya çalışan kullanıcılara önce süresiz ban, devam ederse IP ban atacağız.
Filmbol'da moderatör olmak ister misiniz? Bizimle iletişime geçmek için tıklayın!
Demir Adam 2 (Iron Man 2) - 2010 - TR+ORG - 1080P | tt1228705
BroserBros
Demir Adam 2 (Iron Man 2) - 2010 - TR+ORG - 1080P | tt1228705
10
3992
  • Derecelendirme: 0/5 - 0 oy
  • 1
  • 2
  • 3
  • 4
  • 5
Konuyu Okuyanlar:1 Ziyaretçi
Şuan Online!
Filmin Yayınlanma Tarihi: 2010 
WWW
Şuan Online!
BroserBros Kurucu Admin
*******
Admin



 Demir Adam 2



Dünyada Iron Man (Demir Adam) Kimliğinin farkında olan Tony Stark, Babasının mirasından güç alan intikamcı bir adam ile savaşmalı.

Demir Adam 2 (2010) (Iron Man 2) | tt1228705 Filmi Imdb'den 730,000 kişi tarafından oylandı ve 7,0 puan aldı. Bu film için editör puanı %87 olarak belirlendi. İyi Seyirler!

Teknik Detaylar

Kod :
General
Unique ID                                : 19766205422744653966456786961645147256 (0xEDED52B3DBAE674673D32A8645B9478)
Complete name                            : /home/BroserBros/Desktop/6/Demir.Adam.2.2010.1080p.BluRay.x264.TR.ENG.Filmbol.mkv
Format                                   : Matroska
Format version                           : Version 4
File size                                : 2.16 GiB
Duration                                 : 2 h 4 min
Overall bit rate                         : 2 481 kb/s
Movie name                               : Demir Adam 2 - Iron Man 2 - 2010 | Filmbol.org
Encoded date                             : UTC 2021-03-14 09:50:46
Writing application                      : mkvmerge v53.0.0 ('Fool's Gold') 64-bit
Writing library                          : libebml v1.4.1 + libmatroska v1.6.2

Video
ID                                       : 1
Format                                   : AVC
Format/Info                              : Advanced Video Codec
Format profile                           : [email protected]
Format settings                          : CABAC / 4 Ref Frames
Format settings, CABAC                   : Yes
Format settings, Reference frames        : 4 frames
Codec ID                                 : V_MPEG4/ISO/AVC
Duration                                 : 2 h 4 min
Bit rate                                 : 1 747 kb/s
Width                                    : 1 920 pixels
Height                                   : 816 pixels
Display aspect ratio                     : 2.35:1
Frame rate mode                          : Constant
Frame rate                               : 23.976 (24000/1001) FPS
Color space                              : YUV
Chroma subsampling                       : 4:2:0
Bit depth                                : 8 bits
Scan type                                : Progressive
Bits/(Pixel*Frame)                       : 0.047
Stream size                              : 1.52 GiB (70%)
Title                                    : 1080P - Filmbol.org
Writing library                          : x264 core 120 r2164 da19765
Encoding settings                        : cabac=1 / ref=3 / deblock=1:-2:-1 / analyse=0x3:0x113 / me=hex / subme=7 / psy=1 / psy_rd=1.00:0.00 / mixed_ref=1 / me_range=16 / chroma_me=1 / trellis=1 / 8x8dct=1 / cqm=0 / deadzone=21,11 / fast_pskip=1 / chroma_qp_offset=-2 / threads=12 / sliced_threads=0 / nr=0 / decimate=1 / interlaced=0 / bluray_compat=0 / constrained_intra=0 / bframes=3 / b_pyramid=2 / b_adapt=1 / b_bias=0 / direct=1 / weightb=1 / open_gop=0 / weightp=2 / keyint=240 / keyint_min=23 / scenecut=40 / intra_refresh=0 / rc_lookahead=40 / rc=2pass / mbtree=1 / bitrate=1747 / ratetol=1.0 / qcomp=0.60 / qpmin=10 / qpmax=51 / qpstep=4 / cplxblur=20.0 / qblur=0.5 / ip_ratio=1.40 / aq=1:1.00
Default                                  : Yes
Forced                                   : No

Audio #1
ID                                       : 2
Format                                   : AC-3
Format/Info                              : Audio Coding 3
Commercial name                          : Dolby Digital
Codec ID                                 : A_AC3
Duration                                 : 2 h 4 min
Bit rate mode                            : Constant
Bit rate                                 : 640 kb/s
Channel(s)                               : 6 channels
Channel layout                           : L R C LFE Ls Rs
Sampling rate                            : 48.0 kHz
Frame rate                               : 31.250 FPS (1536 SPF)
Compression mode                         : Lossy
Delay relative to video                  : 17 ms
Stream size                              : 571 MiB (26%)
Title                                    : Türkçe - Filmbol.org
Language                                 : Turkish
Service kind                             : Complete Main
Default                                  : Yes
Forced                                   : No

Audio #2
ID                                       : 3
Format                                   : AAC LC
Format/Info                              : Advanced Audio Codec Low Complexity
Codec ID                                 : A_AAC-2
Duration                                 : 2 h 4 min
Bit rate                                 : 92.0 kb/s
Channel(s)                               : 2 channels
Channel layout                           : L R
Sampling rate                            : 48.0 kHz
Frame rate                               : 46.875 FPS (1024 SPF)
Compression mode                         : Lossy
Delay relative to video                  : -83 ms
Stream size                              : 82.0 MiB (4%)
Title                                    : Orjinal Dil - Filmbol.org
Language                                 : Turkish
Default                                  : No
Forced                                   : No

Text
ID                                       : 4
Format                                   : UTF-8
Codec ID                                 : S_TEXT/UTF8
Codec ID/Info                            : UTF-8 Plain Text
Duration                                 : 2 h 4 min
Bit rate                                 : 55 b/s
Count of elements                        : 1446
Stream size                              : 50.2 KiB (0%)
Title                                    : Türkçe - Filmbol.org
Default                                  : Yes
Forced                                   : No

Film Detayları


 Demir Adam 2

 Demir Adam 2

 Demir Adam 2


Film Fragmanı


Film Detayları

Uptobox ile indir

1Fichier ile indir

1Fichier'den İndiremiyor musun? Tıklayın!


Mega linki şuan da gizli. Kullanıma açmak için konuya yorum yapın ve ardından sayfayı yenileyin.

Mega


Bunun için üzgünüz ancak, bu linke sadece premium üyeler erişebilir.

Filmbol Cloud





Şuan Offine!
Şuan Offine!
erdoganozer1 Yeni Üye
*
Üye

  • Konular0
  • Mesajlar4
  • Rep puanı 0
Heart
Şuan Offine!
Şuan Offine!
arizona17 Uzman Üye
**
Uzman Üye

  • Konular0
  • Mesajlar19
  • Rep puanı 0
guzel bir film
Şuan Offine!
Şuan Offine!
xecu Cezalı Üye

  • Konular0
  • Mesajlar2
sfdafdsafdsa
Şuan Offine!
Şuan Offine!
Yusuf0zel Yeni Üye
*
Üye

  • Konular0
  • Mesajlar3
  • Rep puanı 0
guzel bir film
Şuan Offine!
Şuan Offine!
tunit55 Uzman Üye
**
Uzman Üye

  • Konular0
  • Mesajlar6
  • Rep puanı 0
ADAMSINIZ
Şuan Offine!
Şuan Offine!
cictatanga Uzman Üye
**
Uzman Üye

  • Konular0
  • Mesajlar17
  • Rep puanı 0
site çok iyi
Şuan Online!
Şuan Online!
BroserBros Kurucu Admin
*******
Admin

16.03.2021 Yönetici Notu:

Kırık linkler kontrol edildi, kaldırıldı ve yenilendi. Tüm linkler tamamen çalışır durumda.
Şuan Offine!
Şuan Offine!
zinqedit Uzman Üye
**
Uzman Üye

  • Konular0
  • Mesajlar21
  • Rep puanı 0
harika
Şuan Offine!
Şuan Offine!
rdemirci05 Yeni Üye
*
Üye

  • Konular0
  • Mesajlar1
  • Rep puanı 0
nice..


Hızlı Menü: