⤤ Premium'a Yükselt
Filmbol Forum Film İndir 1080P v Meg: Derinlerdeki Dehşet (The Meg) - 2018 - TR+ORG - 1080P | tt4779682

Filmbol TV kullanıma açıldı. Bu adresten giriş yapabilirsin: Giriş





Meg: Derinlerdeki Dehşet (The Meg) - 2018 - TR+ORG - 1080P | tt4779682
BroserBros
Meg: Derinlerdeki Dehşet (The Meg) - 2018 - TR+ORG - 1080P | tt4779682
9
1541
  • Derecelendirme: 0/5 - 0 oy
  • 1
  • 2
  • 3
  • 4
  • 5
Konuyu Okuyanlar:2 Ziyaretçi
Şuan Online!
Filmin Yayınlanma Tarihi: 2018 
WWW
Rapor Et!
Şuan Online!
BroserBros Kurucu Admin
*******
Admin



 Meg: Derinlerdeki Dehşet



Meg: Derinlerdeki Dehşet, tarih öncesinden kalma bir canavarı durdurmaya çalışan Jonas Taylor’ın hikayesini anlatıyor. Uluslararası bir deniz altı gözlem programının parçası olan derin deniz sualtısı, soyunun çoktan tükenmiş olduğu düşünülen büyük bir yaratık tarafından saldırıya uğrar. Hasar gören denizaltı, mürettebatı içeride kapana kısılmış bir halde, Pasifik Okyanusu’nun en derin yerinde durmaktadır. Vizyoner Çin okyanus bilimcisi, kızı Suyin’in gönülsüzlüğüne rağmen, mürettebatı kurtarması için uzman derin deniz kurtarma dalgıcı Jonas Taylor’ı tutar. Taylor sualtının çevresinde süzülen bu canavarla daha önce de karşılaşmıştır; tarih öncesinden kalan ve iki buçuk milyar yıl önce soyunun tükendiği zannedilen, 23 metrelik bir Megalodon. Taylor aşağıda sıkışıp kalmış herkesi kurtarmak için kendi hayatını riske atmalı, korkularıyla yüzleşmeli ve dünyanın en tehlikeli yırtıcısının karşısına çıkmalıdır…

Meg: Derinlerdeki Dehşet (2018) (The Meg) | tt4779682 Filmi Imdb'den 160,000 kişi tarafından oylandı ve 5,6 puan aldı. Bu film için editör puanı %68 olarak belirlendi. İyi Seyirler!

Teknik Detaylar

Kod :
General
Unique ID                                : 48851793157508033598737986014736110580 (0x24C0835C59B54D1C1E89C54D8BC553F4)
Complete name                            : /home/BroserBros/Desktop/4/Meg.Derinlerdeki.Dehşet.2018.1080p.BluRay.x264.TR.ENG.Filmbol.mkv
Format                                   : Matroska
Format version                           : Version 4
File size                                : 2.18 GiB
Duration                                 : 1 h 53 min
Overall bit rate                         : 2 755 kb/s
Movie name                               : Meg: Derinlerdeki Dehşet - The Meg - 2018 | Filmbol.org
Encoded date                             : UTC 2021-04-29 07:24:58
Writing application                      : mkvmerge v53.0.0 ('Fool's Gold') 64-bit
Writing library                          : libebml v1.4.1 + libmatroska v1.6.2

Video
ID                                       : 1
Format                                   : AVC
Format/Info                              : Advanced Video Codec
Format profile                           : [email protected]
Format settings                          : CABAC / 4 Ref Frames
Format settings, CABAC                   : Yes
Format settings, Reference frames        : 4 frames
Codec ID                                 : V_MPEG4/ISO/AVC
Duration                                 : 1 h 53 min
Bit rate                                 : 2 150 kb/s
Width                                    : 1 920 pixels
Height                                   : 800 pixels
Display aspect ratio                     : 2.40:1
Frame rate mode                          : Constant
Frame rate                               : 23.976 (24000/1001) FPS
Color space                              : YUV
Chroma subsampling                       : 4:2:0
Bit depth                                : 8 bits
Scan type                                : Progressive
Bits/(Pixel*Frame)                       : 0.058
Stream size                              : 1.70 GiB (78%)
Title                                    : 1080P - Filmbol.org
Writing library                          : x264 core 157
Encoding settings                        : cabac=1 / ref=4 / deblock=1:-1:-1 / analyse=0x3:0x133 / me=umh / subme=9 / psy=1 / psy_rd=1.00:0.15 / mixed_ref=1 / me_range=24 / chroma_me=1 / trellis=2 / 8x8dct=1 / cqm=0 / deadzone=21,11 / fast_pskip=0 / chroma_qp_offset=-3 / threads=18 / lookahead_threads=1 / sliced_threads=0 / nr=0 / decimate=1 / interlaced=0 / bluray_compat=0 / constrained_intra=0 / bframes=3 / b_pyramid=2 / b_adapt=2 / b_bias=0 / direct=3 / weightb=1 / open_gop=0 / weightp=2 / keyint=250 / keyint_min=23 / scenecut=40 / intra_refresh=0 / rc_lookahead=60 / rc=2pass / mbtree=1 / bitrate=2150 / ratetol=1.0 / qcomp=0.60 / qpmin=0 / qpmax=69 / qpstep=4 / cplxblur=20.0 / qblur=0.5 / vbv_maxrate=31250 / vbv_bufsize=31250 / nal_hrd=none / filler=0 / ip_ratio=1.40 / aq=1:1.00
Default                                  : Yes
Forced                                   : No

Audio #1
ID                                       : 2
Format                                   : AC-3
Format/Info                              : Audio Coding 3
Commercial name                          : Dolby Digital
Codec ID                                 : A_AC3
Duration                                 : 1 h 53 min
Bit rate mode                            : Constant
Bit rate                                 : 448 kb/s
Channel(s)                               : 6 channels
Channel layout                           : L R C LFE Ls Rs
Sampling rate                            : 48.0 kHz
Frame rate                               : 31.250 FPS (1536 SPF)
Compression mode                         : Lossy
Stream size                              : 363 MiB (16%)
Title                                    : Türkçe - Filmbol.org
Language                                 : Turkish
Service kind                             : Complete Main
Default                                  : Yes
Forced                                   : Yes

Audio #2
ID                                       : 3
Format                                   : AAC LC
Format/Info                              : Advanced Audio Codec Low Complexity
Codec ID                                 : A_AAC-2
Duration                                 : 1 h 53 min
Bit rate                                 : 144 kb/s
Channel(s)                               : 2 channels
Channel layout                           : L R
Sampling rate                            : 48.0 kHz
Frame rate                               : 46.875 FPS (1024 SPF)
Compression mode                         : Lossy
Stream size                              : 118 MiB (5%)
Title                                    : Orjinal Dil - Filmbol.org
Language                                 : English
Default                                  : No
Forced                                   : No

Text #1
ID                                       : 4
Format                                   : PGS
Muxing mode                              : zlib
Codec ID                                 : S_HDMV/PGS
Codec ID/Info                            : Picture based subtitle format used on BDs/HD-DVDs
Duration                                 : 1 h 51 min
Bit rate                                 : 1 563 b/s
Count of elements                        : 188
Stream size                              : 1.25 MiB (0%)
Title                                    : Türkçe Forced - Filmbol.org
Language                                 : Turkish
Default                                  : Yes
Forced                                   : Yes

Text #2
ID                                       : 5
Format                                   : PGS
Muxing mode                              : zlib
Codec ID                                 : S_HDMV/PGS
Codec ID/Info                            : Picture based subtitle format used on BDs/HD-DVDs
Duration                                 : 1 h 52 min
Bit rate                                 : 28.1 kb/s
Count of elements                        : 2746
Stream size                              : 22.6 MiB (1%)
Title                                    : Türkçe - Filmbol.org
Language                                 : Turkish
Default                                  : No
Forced                                   : No

Film Detayları


 Meg: Derinlerdeki Dehşet

 Meg: Derinlerdeki Dehşet

 Meg: Derinlerdeki Dehşet


Film Fragmanı


Film İndir


Rar Şifresi: filmbol.org


Uptobox ile indir

1Fichier ile indir

1Fichier'den İndiremiyor musun? Tıklayın!












Şuan Offine!
Rapor Et!
Şuan Offine!
ahmetyee1 Süper Üye
***
Super Üye
  • Konular2
  • Mesajlar75
  • Rep puanı 0
halla iyi olmuş.
Şuan Offine!
Rapor Et!
Şuan Offine!
alpozgenoglu Uzman Üye
**
Uzman Üye
  • Konular0
  • Mesajlar7
  • Rep puanı 0
fafasf

fafadfsaasfd
Şuan Offine!
Rapor Et!
Şuan Offine!
Mehmet Yöney Uzman Üye
**
Uzman Üye
  • Konular0
  • Mesajlar29
  • Rep puanı 0
dublajlı dahha mı iyi
Şuan Offine!
Rapor Et!
Şuan Offine!
ahmettepe Üye
*
Üye
  • Konular0
  • Mesajlar65
  • Rep puanı 1
teşekkürler
Şuan Offine!
Rapor Et!
Şuan Offine!
mstkrtl0 Üye
*
Üye
  • Konular0
  • Mesajlar29
  • Rep puanı 0
tesekkur
Şuan Online!
Rapor Et!
Şuan Online!
mexsteel Premium Üye
****
  • Konular1
  • Mesajlar153
  • Rep puanı 9
Teşekkürler.
Şuan Offine!
Rapor Et!
Şuan Offine!
Eowkai666 Üye
*
Üye
  • Konular0
  • Mesajlar7
  • Rep puanı 0
Teşekkürler.
Şuan Offine!
Rapor Et!
Şuan Offine!
trmntrmn Süper Üye
***
Super Üye
  • Konular0
  • Mesajlar802
  • Rep puanı 11
Teşekkürler.
Şuan Offine!
Rapor Et!
Şuan Offine!
serhatucn Üye
*
Üye
  • Konular0
  • Mesajlar32
  • Rep puanı 0
Teşekkürler.


Hızlı Menü: