⤤ Premium'a Yükselt
Filmbol Forum Film İndir BRRip XviD v Meg: Derinlerdeki Dehşet (The Meg) - 2018 - TR - BRRip XviD | tt4779682

Filmbol TV kullanıma açıldı. Bu adresten giriş yapabilirsin: Giriş





Meg: Derinlerdeki Dehşet (The Meg) - 2018 - TR - BRRip XviD | tt4779682
BroserBros
Meg: Derinlerdeki Dehşet (The Meg) - 2018 - TR - BRRip XviD | tt4779682
1
661
  • Derecelendirme: 0/5 - 0 oy
  • 1
  • 2
  • 3
  • 4
  • 5
Konuyu Okuyanlar:3 Ziyaretçi
Şuan Online!
Filmin Yayınlanma Tarihi: 2018 
WWW
Rapor Et!
Şuan Online!
BroserBros Kurucu Admin
*******
Admin



 Meg: Derinlerdeki Dehşet



Meg: Derinlerdeki Dehşet, tarih öncesinden kalma bir canavarı durdurmaya çalışan Jonas Taylor’ın hikayesini anlatıyor. Uluslararası bir deniz altı gözlem programının parçası olan derin deniz sualtısı, soyunun çoktan tükenmiş olduğu düşünülen büyük bir yaratık tarafından saldırıya uğrar. Hasar gören denizaltı, mürettebatı içeride kapana kısılmış bir halde, Pasifik Okyanusu’nun en derin yerinde durmaktadır. Vizyoner Çin okyanus bilimcisi, kızı Suyin’in gönülsüzlüğüne rağmen, mürettebatı kurtarması için uzman derin deniz kurtarma dalgıcı Jonas Taylor’ı tutar. Taylor sualtının çevresinde süzülen bu canavarla daha önce de karşılaşmıştır; tarih öncesinden kalan ve iki buçuk milyar yıl önce soyunun tükendiği zannedilen, 23 metrelik bir Megalodon. Taylor aşağıda sıkışıp kalmış herkesi kurtarmak için kendi hayatını riske atmalı, korkularıyla yüzleşmeli ve dünyanın en tehlikeli yırtıcısının karşısına çıkmalıdır…

Meg: Derinlerdeki Dehşet (2018) (The Meg) | tt4779682 Filmi Imdb'den 160,000 kişi tarafından oylandı ve 5,6 puan aldı. Bu film için editör puanı %68 olarak belirlendi. İyi Seyirler!

Teknik Detaylar

Kod :
General
Unique ID                                : 27945101448662916590681938393156325586 (0x150607E067917E0E4780A280F5C090D2)
Complete name                            : /home/BroserBros/Desktop/4/Meg.Derinlerdeki.Dehşet.2018.BRRip.XviD.TR.Filmbol.avi
Format                                   : Matroska
Format version                           : Version 4
File size                                : 1.37 GiB
Duration                                 : 1 h 53 min
Overall bit rate                         : 1 727 kb/s
Movie name                               : Meg: Derinlerdeki Dehşet - The Meg - 2018 | Filmbol.org
Encoded date                             : UTC 2021-04-29 07:37:43
Writing application                      : mkvmerge v53.0.0 ('Fool's Gold') 64-bit
Writing library                          : libebml v1.4.1 + libmatroska v1.6.2
FileExtension_Invalid                    : mkv mk3d mka mks

Video
ID                                       : 1
Format                                   : MPEG-4 Visual
Format profile                           : [email protected]
Format settings, BVOP                    : No
Format settings, QPel                    : No
Format settings, GMC                     : No warppoints
Format settings, Matrix                  : Default (H.263)
Codec ID                                 : V_MS/VFW/FOURCC / XVID
Codec ID/Hint                            : XviD
Duration                                 : 1 h 53 min
Bit rate                                 : 1 598 kb/s
Width                                    : 720 pixels
Height                                   : 302 pixels
Display aspect ratio                     : 2.40:1
Frame rate mode                          : Constant
Frame rate                               : 23.976 FPS
Color space                              : YUV
Chroma subsampling                       : 4:2:0
Bit depth                                : 8 bits
Scan type                                : Progressive
Compression mode                         : Lossy
Bits/(Pixel*Frame)                       : 0.306
Stream size                              : 1.26 GiB (92%)
Title                                    : Meg: Derinlerdeki Dehşet - The Meg - 2018 | Filmbol.org
Writing library                          : Lavc58.18.100
Default                                  : Yes
Forced                                   : No

Audio
ID                                       : 2
Format                                   : MPEG Audio
Format version                           : Version 1
Format profile                           : Layer 3
Format settings                          : Joint stereo / MS Stereo
Codec ID                                 : A_MPEG/L3
Codec ID/Hint                            : MP3
Duration                                 : 1 h 53 min
Bit rate mode                            : Constant
Bit rate                                 : 128 kb/s
Channel(s)                               : 2 channels
Sampling rate                            : 48.0 kHz
Frame rate                               : 41.667 FPS (1152 SPF)
Compression mode                         : Lossy
Stream size                              : 104 MiB (7%)
Title                                    : Meg: Derinlerdeki Dehşet - The Meg - 2018 | Filmbol.org
Default                                  : Yes
Forced                                   : No

Film Detayları


 Meg: Derinlerdeki Dehşet

 Meg: Derinlerdeki Dehşet

 Meg: Derinlerdeki Dehşet


Film Fragmanı


Film İndir


Rar Şifresi: filmbol.org



Uptobox ile indir

1Fichier ile indir

1Fichier'den İndiremiyor musun? Tıklayın!












Şuan Offine!
Rapor Et!
Şuan Offine!
Eowkai666 Üye
*
Üye
  • Konular0
  • Mesajlar7
  • Rep puanı 0
Teşekkürler.


Hızlı Menü: