⤤ Premium'a Yükselt

Merhaba, Ziyaretçi. Mega linklerinin bir kısmı deaktif halde ve yenileme çalışmalarına başladık. Bu süre içinde ikinci duyuruya kadar mega linklerini raporlamayın!! x

Filmbol Forum Film İndir 720P v Meg: Derinlerdeki Dehşet (The Meg) - 2018 - TR+ORG - 720P | tt4779682

Filmbol TV kullanıma açıldı. Bu adresten giriş yapabilirsin: Giriş





Meg: Derinlerdeki Dehşet (The Meg) - 2018 - TR+ORG - 720P | tt4779682
BroserBros
Meg: Derinlerdeki Dehşet (The Meg) - 2018 - TR+ORG - 720P | tt4779682
9
2003
  • Derecelendirme: 0/5 - 0 oy
  • 1
  • 2
  • 3
  • 4
  • 5
Konuyu Okuyanlar:3 Ziyaretçi
Şuan Online!
Filmin Yayınlanma Tarihi: 2018 
WWW
Rapor Et!
Şuan Online!
BroserBros Kurucu Admin
*******
Admin



 Meg: Derinlerdeki Dehşet



Meg: Derinlerdeki Dehşet, tarih öncesinden kalma bir canavarı durdurmaya çalışan Jonas Taylor’ın hikayesini anlatıyor. Uluslararası bir deniz altı gözlem programının parçası olan derin deniz sualtısı, soyunun çoktan tükenmiş olduğu düşünülen büyük bir yaratık tarafından saldırıya uğrar. Hasar gören denizaltı, mürettebatı içeride kapana kısılmış bir halde, Pasifik Okyanusu’nun en derin yerinde durmaktadır. Vizyoner Çin okyanus bilimcisi, kızı Suyin’in gönülsüzlüğüne rağmen, mürettebatı kurtarması için uzman derin deniz kurtarma dalgıcı Jonas Taylor’ı tutar. Taylor sualtının çevresinde süzülen bu canavarla daha önce de karşılaşmıştır; tarih öncesinden kalan ve iki buçuk milyar yıl önce soyunun tükendiği zannedilen, 23 metrelik bir Megalodon. Taylor aşağıda sıkışıp kalmış herkesi kurtarmak için kendi hayatını riske atmalı, korkularıyla yüzleşmeli ve dünyanın en tehlikeli yırtıcısının karşısına çıkmalıdır…

Meg: Derinlerdeki Dehşet (2018) (The Meg) | tt4779682 Filmi Imdb'den 160,000 kişi tarafından oylandı ve 5,6 puan aldı. Bu film için editör puanı %68 olarak belirlendi. İyi Seyirler!

Teknik Detaylar

Kod :
General
Unique ID                                : 168991049095942210171968369904704160720 (0x7F227DFF6CD84046EDD1EEAA6A1E03D0)
Complete name                            : /home/BroserBros/Desktop/4/Meg.Derinlerdeki.Dehşet.2018.720p.BluRay.x264.TR.ENG.Filmbol.mkv
Format                                   : Matroska
Format version                           : Version 4
File size                                : 1.31 GiB
Duration                                 : 1 h 53 min
Overall bit rate                         : 1 655 kb/s
Movie name                               : Meg: Derinlerdeki Dehşet - The Meg - 2018 | Filmbol.org
Encoded date                             : UTC 2021-04-29 07:13:03
Writing application                      : mkvmerge v53.0.0 ('Fool's Gold') 64-bit
Writing library                          : libebml v1.4.1 + libmatroska v1.6.2

Video
ID                                       : 1
Format                                   : AVC
Format/Info                              : Advanced Video Codec
Format profile                           : [email protected]
Format settings                          : CABAC / 4 Ref Frames
Format settings, CABAC                   : Yes
Format settings, Reference frames        : 4 frames
Codec ID                                 : V_MPEG4/ISO/AVC
Duration                                 : 1 h 53 min
Bit rate                                 : 1 050 kb/s
Width                                    : 1 280 pixels
Height                                   : 534 pixels
Display aspect ratio                     : 2.40:1
Original display aspect ratio            : 2.40:1
Frame rate mode                          : Constant
Frame rate                               : 23.976 (24000/1001) FPS
Color space                              : YUV
Chroma subsampling                       : 4:2:0
Bit depth                                : 8 bits
Scan type                                : Progressive
Bits/(Pixel*Frame)                       : 0.064
Stream size                              : 850 MiB (63%)
Title                                    : 720P - Filmbol.org
Writing library                          : x264 core 157
Encoding settings                        : cabac=1 / ref=4 / deblock=1:-1:-1 / analyse=0x3:0x133 / me=umh / subme=9 / psy=1 / psy_rd=1.00:0.15 / mixed_ref=1 / me_range=24 / chroma_me=1 / trellis=2 / 8x8dct=1 / cqm=0 / deadzone=21,11 / fast_pskip=0 / chroma_qp_offset=-3 / threads=17 / lookahead_threads=1 / sliced_threads=0 / nr=0 / decimate=1 / interlaced=0 / bluray_compat=0 / constrained_intra=0 / bframes=3 / b_pyramid=2 / b_adapt=2 / b_bias=0 / direct=3 / weightb=1 / open_gop=0 / weightp=2 / keyint=250 / keyint_min=23 / scenecut=40 / intra_refresh=0 / rc_lookahead=60 / rc=2pass / mbtree=1 / bitrate=1050 / ratetol=1.0 / qcomp=0.60 / qpmin=0 / qpmax=69 / qpstep=4 / cplxblur=20.0 / qblur=0.5 / vbv_maxrate=31250 / vbv_bufsize=31250 / nal_hrd=none / filler=0 / ip_ratio=1.40 / aq=1:1.00
Default                                  : Yes
Forced                                   : No

Audio #1
ID                                       : 2
Format                                   : AC-3
Format/Info                              : Audio Coding 3
Commercial name                          : Dolby Digital
Codec ID                                 : A_AC3
Duration                                 : 1 h 53 min
Bit rate mode                            : Constant
Bit rate                                 : 448 kb/s
Channel(s)                               : 6 channels
Channel layout                           : L R C LFE Ls Rs
Sampling rate                            : 48.0 kHz
Frame rate                               : 31.250 FPS (1536 SPF)
Compression mode                         : Lossy
Delay relative to video                  : -43 ms
Stream size                              : 363 MiB (27%)
Title                                    : Türkçe - Filmbol.org
Language                                 : Turkish
Service kind                             : Complete Main
Default                                  : Yes
Forced                                   : Yes

Audio #2
ID                                       : 3
Format                                   : AAC LC
Format/Info                              : Advanced Audio Codec Low Complexity
Codec ID                                 : A_AAC-2
Duration                                 : 1 h 53 min
Bit rate                                 : 144 kb/s
Channel(s)                               : 2 channels
Channel layout                           : L R
Sampling rate                            : 48.0 kHz
Frame rate                               : 46.875 FPS (1024 SPF)
Compression mode                         : Lossy
Delay relative to video                  : -43 ms
Stream size                              : 118 MiB (9%)
Title                                    : Orjinal Dil - Filmbol.org
Language                                 : English
Default                                  : No
Forced                                   : No

Text #1
ID                                       : 4
Format                                   : PGS
Muxing mode                              : zlib
Codec ID                                 : S_HDMV/PGS
Codec ID/Info                            : Picture based subtitle format used on BDs/HD-DVDs
Duration                                 : 1 h 51 min
Bit rate                                 : 1 563 b/s
Count of elements                        : 188
Stream size                              : 1.25 MiB (0%)
Title                                    : Türkçe Forced - Filmbol.org
Language                                 : Turkish
Default                                  : Yes
Forced                                   : Yes

Text #2
ID                                       : 5
Format                                   : PGS
Muxing mode                              : zlib
Codec ID                                 : S_HDMV/PGS
Codec ID/Info                            : Picture based subtitle format used on BDs/HD-DVDs
Duration                                 : 1 h 52 min
Bit rate                                 : 28.1 kb/s
Count of elements                        : 2746
Stream size                              : 22.6 MiB (2%)
Title                                    : Türkçe - Filmbol.org
Language                                 : Turkish
Default                                  : No
Forced                                   : No

Film Detayları


 Meg: Derinlerdeki Dehşet

 Meg: Derinlerdeki Dehşet

 Meg: Derinlerdeki Dehşet


Film Fragmanı


Film İndir


Rar Şifresi: filmbol.org


Uptobox ile indir

1Fichier ile indir

1Fichier'den İndiremiyor musun? Tıklayın!












Şuan Offine!
Rapor Et!
Şuan Offine!
karagoz_erzrm Üye
*
Üye
  • Konular0
  • Mesajlar2
  • Rep puanı 0
film için teşekürler
Şuan Offine!
Rapor Et!
Şuan Offine!
Ali3838 Üye
*
Üye
  • Konular0
  • Mesajlar5
  • Rep puanı 0
Emeğine saglik
Şuan Offine!
Rapor Et!
Şuan Offine!
tahazrl Üye
*
Üye
  • Konular0
  • Mesajlar1
  • Rep puanı 0
Teşekkürler  Heart
Şuan Online!
Rapor Et!
Şuan Online!
merve320 Uzman Üye
**
Uzman Üye
  • Konular0
  • Mesajlar27
  • Rep puanı 0
Teşekkürler
Şuan Offine!
Rapor Et!
Şuan Offine!
Carnation Üye
*
Üye
  • Konular0
  • Mesajlar1
  • Rep puanı 0
Teşekkürler güzel film
Şuan Offine!
Rapor Et!
Şuan Offine!
firatcan140 Süper Üye
***
Super Üye
  • Konular0
  • Mesajlar27
  • Rep puanı 0
521twrqtwq
Şuan Offine!
Rapor Et!
Şuan Offine!
memoli2001 Uzman Üye
**
Uzman Üye
  • Konular0
  • Mesajlar12
  • Rep puanı 0
cok iyi
Şuan Offine!
Rapor Et!
Şuan Offine!
thor Süper Üye
***
Super Üye
  • Konular0
  • Mesajlar34
  • Rep puanı 0
Teşekkürler
Şuan Offine!
Rapor Et!
Şuan Offine!
Sezer Kipritçi Üye
*
Üye
  • Konular0
  • Mesajlar1
  • Rep puanı 0
Teşekkürler.


Hızlı Menü: