Filmbol Forum Film İndir 1080P v Harry Potter ve Felsefe Taşı (2001) Türkçe Dublaj BLURAY m1080P İndir
Mega linklerinin şikayet edilmemesi için global erişime kapatıp sadece yorum yapanlara açıyoruz. Bu linkleri gizleme işlemini mecburen yapıyoruz ve yorum yapmanızın siteye değil size faydası vardır. Teşekürler yazmayı çok görüp, Random/Spam mesajlar atarak Mega linklerini açmaya çalışan kullanıcılara önce süresiz ban, devam ederse IP ban atacağız.
Filmbol'da moderatör olmak ister misiniz? Bizimle iletişime geçmek için tıklayın!
Harry Potter ve Felsefe Taşı (2001) Türkçe Dublaj BLURAY m1080P İndir
BroserBros
Harry Potter ve Felsefe Taşı (2001) Türkçe Dublaj BLURAY m1080P İndir
37
5640
  • Derecelendirme: 0/5 - 0 oy
  • 1
  • 2
  • 3
  • 4
  • 5
Konuyu Okuyanlar:2 Ziyaretçi
Şuan Online!
Filmin Yayınlanma Tarihi: 2001 
WWW
Şuan Online!
BroserBros Kurucu Admin
*******
Admin





Ses Kodek: AC3


Audio Coding 3 (AC3)






Harry Potter ve Felsefe Tasi



Teknik Detaylar

Kod :
General
Complete name                            : Harry.Potter.ve.Felsefe.Taşı.2001.m1080p.BLURAY.x264.TR.Filmbol.mkv
Format                                   : Matroska
Format version                           : Version 4 / Version 2
File size                                : 2.34 GiB
Duration                                 : 2h 32mn
Overall bit rate                         : 2 198 Kbps
Movie name                               : Harry Potter ve Felsefe Taşı (2001) - Filmbol.org
Encoded date                             : UTC 2019-09-16 06:51:20
Writing application                      : mkvmerge v35.0.0 ('All The Love In The World') 64-bit
Writing library                          : libebml v1.3.9 + libmatroska v1.5.2

Video
ID                                       : 1
Format                                   : AVC
Format/Info                              : Advanced Video Codec
Format profile                           : [email protected]
Format settings, CABAC                   : Yes
Format settings, ReFrames                : 4 frames
Codec ID                                 : V_MPEG4/ISO/AVC
Duration                                 : 2h 32mn
Bit rate                                 : 2 005 Kbps
Width                                    : 1 920 pixels
Height                                   : 798 pixels
Display aspect ratio                     : 2.40:1
Frame rate mode                          : Constant
Frame rate                               : 23.976 (24000/1001) fps
Color space                              : YUV
Chroma subsampling                       : 4:2:0
Bit depth                                : 8 bits
Scan type                                : Progressive
Bits/(Pixel*Frame)                       : 0.055
Stream size                              : 2.13 GiB (91%)
Title                                    : 1080P - Filmbol.org
Writing library                          : x264 core 130
Language                                 : English
Default                                  : Yes
Forced                                   : No

Audio
ID                                       : 2
Format                                   : AC-3
Format/Info                              : Audio Coding 3
Mode extension                           : CM (complete main)
Format settings, Endianness              : Big
Codec ID                                 : A_AC3
Duration                                 : 2h 32mn
Bit rate mode                            : Constant
Bit rate                                 : 192 Kbps
Channel(s)                               : 2 channels
Channel positions                        : Front: L R
Sampling rate                            : 48.0 KHz
Frame rate                               : 31.250 fps (1536 spf)
Compression mode                         : Lossy
Stream size                              : 209 MiB (9%)
Title                                    : Türkçe - Filmbol.org
Language                                 : Turkish
Default                                  : Yes
Forced                                   : No


Film Detayları


Harry Potter ve Felsefe Tasi

Harry Potter ve Felsefe Tasi

Harry Potter ve Felsefe Tasi


Film Fragmanı


Film Detayları

Mini 720P İndir


Uptobox ile indir

MediaFire ile indir

Google Drive linki şuan da gizli. Kullanıma açmak için konuya yorum yapın ve ardından sayfayı yenileyin.

Google Drive

Şuan Offine!
Şuan Offine!
recep1453 Yeni Üye
*
Üye

  • Konular0
  • Mesajlar1
  • Rep puanı 0
çok teşekkür ederim
Şuan Offine!
Şuan Offine!
gkas001 Yeni Üye
*
Üye

  • Konular0
  • Mesajlar1
  • Rep puanı 0
teşekkürler
Şuan Offine!
Şuan Offine!
burukalibey Uzman Üye
**
Uzman Üye

  • Konular0
  • Mesajlar10
  • Rep puanı 0
tekrar izlemek için arşivlerde bulundurulması gereken filmdir
Şuan Offine!
Şuan Offine!
ErtugrulAkkus Uzman Üye
**
Uzman Üye

  • Konular0
  • Mesajlar6
  • Rep puanı 0
Uzun zamandır arıyorum.Çok iyi
Şuan Offine!
Şuan Offine!
fantom1980 Uzman Üye
**
Uzman Üye

  • Konular0
  • Mesajlar19
  • Rep puanı 0
güzel bir seri film
Şuan Offine!
Şuan Offine!
abidiya Yeni Üye
*
Üye

  • Konular0
  • Mesajlar1
  • Rep puanı 0
eywallah admin
Şuan Offine!
Şuan Offine!
AhdeM Uzman Üye
**
Uzman Üye

  • Konular0
  • Mesajlar6
  • Rep puanı 0
emeğinize saglik
Şuan Offine!
Şuan Offine!
medifare için Yeni Üye
*
Üye

  • Konular0
  • Mesajlar1
  • Rep puanı 0
MEDİAFARE
Şuan Offine!
Şuan Offine!
bgl_78 Yeni Üye
*
Üye

  • Konular0
  • Mesajlar4
  • Rep puanı 0
teşekkurler


Konu ile Alakalı Benzer Konular
Konular Yazar Yorumlar Okunma Son Yorum
Filmin Yayınlanma Tarihi: 2002
Yüzüklerin Efendisi: İki Kule (2002) Türkçe Dublaj 1080P İndir BroserBros 14 4,598 3 saat önce
Son Yorum: cictatanga
Filmin Yayınlanma Tarihi: 2016
Jack Reacher: Asla Geri Dönme (J.R: Never Go Back) Türkçe Dublaj m1080P İndir BroserBros 7 2,311 , Saat: 17:24
Son Yorum: muradims
Filmin Yayınlanma Tarihi: 2019
Godzilla 2: Canavarlar Kralı (King of the Monsters) Türkçe Dublaj BLURAY m1080P İndir BroserBros 32 2,449 11-04-2021, Saat: 19:05
Son Yorum: FCBTZR
Filmin Yayınlanma Tarihi: 2016
Kung Fu Panda 3 Türkçe Dublaj m1080P İndir BroserBros 16 7,475 11-04-2021, Saat: 09:32
Son Yorum: metlebision
Filmin Yayınlanma Tarihi: 2014
Godzilla (Godzilla) Türkçe Dublaj 1080P İndir BroserBros 5 2,070 11-04-2021, Saat: 01:35
Son Yorum: FCBTZR

Hızlı Menü: