Filmbol Forum Film İndir 720P v Harry Potter ve Felsefe Taşı (2001) Türkçe Dublaj BLURAY m720P İndir
Mega linklerinin şikayet edilmemesi için global erişime kapatıp sadece yorum yapanlara açıyoruz. Bu linkleri gizleme işlemini mecburen yapıyoruz ve yorum yapmanızın siteye değil size faydası vardır. Teşekürler yazmayı çok görüp, Random/Spam mesajlar atarak Mega linklerini açmaya çalışan kullanıcılara önce süresiz ban, devam ederse IP ban atacağız.
Filmbol'da moderatör olmak ister misiniz? Bizimle iletişime geçmek için tıklayın!
Harry Potter ve Felsefe Taşı (2001) Türkçe Dublaj BLURAY m720P İndir
BroserBros
Harry Potter ve Felsefe Taşı (2001) Türkçe Dublaj BLURAY m720P İndir
15
3945
  • Derecelendirme: 0/5 - 0 oy
  • 1
  • 2
  • 3
  • 4
  • 5
Konuyu Okuyanlar:1 Ziyaretçi
Şuan Online!
Filmin Yayınlanma Tarihi: 2001 
WWW
Şuan Online!
BroserBros Kurucu Admin
*******
Admin





Ses Kodek: AC3


Audio Coding 3 (AC3)






Harry Potter ve Felsefe Tasi



Teknik Detaylar

Kod :
General
Complete name                            : Harry.Potter.ve.Felsefe.Taşı.2001.m720p.BLURAY.x264.TR.Filmbol.mkv
Format                                   : Matroska
Format version                           : Version 4 / Version 2
File size                                : 1.50 GiB
Duration                                 : 2h 32mn
Overall bit rate                         : 1 414 Kbps
Movie name                               : Harry Potter ve Felsefe Taşı (2001) - Filmbol.org
Encoded date                             : UTC 2019-09-16 06:52:28
Writing application                      : mkvmerge v35.0.0 ('All The Love In The World') 64-bit
Writing library                          : libebml v1.3.9 + libmatroska v1.5.2

Video
ID                                       : 1
Format                                   : AVC
Format/Info                              : Advanced Video Codec
Format profile                           : [email protected]
Format settings, CABAC                   : Yes
Format settings, ReFrames                : 4 frames
Codec ID                                 : V_MPEG4/ISO/AVC
Duration                                 : 2h 32mn
Bit rate                                 : 1 220 Kbps
Width                                    : 1 280 pixels
Height                                   : 532 pixels
Display aspect ratio                     : 2.40:1
Frame rate mode                          : Constant
Frame rate                               : 23.976 (24000/1001) fps
Color space                              : YUV
Chroma subsampling                       : 4:2:0
Bit depth                                : 8 bits
Scan type                                : Progressive
Bits/(Pixel*Frame)                       : 0.075
Stream size                              : 1.30 GiB (86%)
Title                                    : 720P - Filmbol.org
Writing library                          : x264 core 130
Language                                 : English
Default                                  : Yes
Forced                                   : No

Audio
ID                                       : 2
Format                                   : AC-3
Format/Info                              : Audio Coding 3
Mode extension                           : CM (complete main)
Format settings, Endianness              : Big
Codec ID                                 : A_AC3
Duration                                 : 2h 32mn
Bit rate mode                            : Constant
Bit rate                                 : 192 Kbps
Channel(s)                               : 2 channels
Channel positions                        : Front: L R
Sampling rate                            : 48.0 KHz
Frame rate                               : 31.250 fps (1536 spf)
Compression mode                         : Lossy
Stream size                              : 209 MiB (14%)
Title                                    : Türkçe - Filmbol.org
Language                                 : Turkish
Default                                  : Yes
Forced                                   : No


Film Detayları


Harry Potter ve Felsefe Tasi

Harry Potter ve Felsefe Tasi

Harry Potter ve Felsefe Tasi


Film Fragmanı


Film Detayları

Mini 720P İndir


Uptobox ile indir

MediaFire ile indir

Şuan Offine!
Şuan Offine!
Yusuf Yeni Üye
*
Üye

  • Konular0
  • Mesajlar1
  • Rep puanı 0
Lütfen mega açılsın indirme linki
Şuan Offine!
Şuan Offine!
Vortex17 Yeni Üye
*
Üye

  • Konular0
  • Mesajlar2
  • Rep puanı 0
emre ve onurcan adamdır Smile
Şuan Offine!
Şuan Offine!
halilca1514 Yeni Üye
*
Üye

  • Konular0
  • Mesajlar2
  • Rep puanı 0
sdgvxch lütfeeeeen açılsın
Şuan Offine!
Şuan Offine!
sd1 Yeni Üye
*
Üye

  • Konular0
  • Mesajlar2
  • Rep puanı 0
Eyvallah hocam saol
Şuan Offine!
Şuan Offine!
kenanklmn Yeni Üye
*
Üye

  • Konular0
  • Mesajlar1
  • Rep puanı 0
hello
Şuan Online!
Şuan Online!
tenteci Uzman Üye
**
Uzman Üye

  • Konular0
  • Mesajlar17
  • Rep puanı 0
eline sağlık
Şuan Offine!
Şuan Offine!
aaa23 Uzman Üye
**
Uzman Üye

  • Konular0
  • Mesajlar9
  • Rep puanı 0
ELİNE SAĞLIK
Şuan Offine!
Şuan Offine!
1EdaNr Yeni Üye
*
Üye

  • Konular0
  • Mesajlar1
  • Rep puanı 0
çok sel flm Smile
Şuan Offine!
Şuan Offine!
Chopinn Yeni Üye
*
Üye

  • Konular0
  • Mesajlar1
  • Rep puanı 0
Link açılsın yorumu +1


Konu ile Alakalı Benzer Konular
Konular Yazar Yorumlar Okunma Son Yorum
Filmin Yayınlanma Tarihi: 2014
Hobbit: Beş Ordunun Savaşı Türkçe Dublaj 720P İndir BroserBros 7 5,595 03-04-2021, Saat: 22:08
Son Yorum: Dilan
Filmin Yayınlanma Tarihi: 2013
Hobbit: Smaug'un Çorak Toprakları Türkçe Dublaj 720P İndir BroserBros 2 4,027 03-04-2021, Saat: 22:07
Son Yorum: Dilan
Filmin Yayınlanma Tarihi: 2012
Hobbit: Beklenmedik Yolculuk (An Unexpected Journey) Türkçe Dublaj 720P İndir BroserBros 3 6,125 03-04-2021, Saat: 20:48
Son Yorum: Dilan
Filmin Yayınlanma Tarihi: 2014
İnsan Avı (A Most Wanted Man) Türkçe Dublaj m720P İndir BroserBros 2 1,186 03-04-2021, Saat: 00:51
Son Yorum: jonwik47
Filmin Yayınlanma Tarihi: 2015
Ters Yüz (Inside Out) Türkçe Dublaj 720P İndir BroserBros 9 7,053 01-04-2021, Saat: 16:28
Son Yorum: ahmetyee1

Hızlı Menü: