Filmbol Forum Film İndir 1080P v Trüf Avcıları (The Truffle Hunters) - 2020 - TR+ORG - 1080P | tt11394318
Bildirimi Kapat
Server kaynaklı problemden dolayı ciddi bir sorun yaşadık. Şuanda forum ve portal aktif halde ancak bazı problemler hala devam ediyor. Problem gördüğünüz yerleri bize bildirmeniz çok önemli. Teşekkürler.

Bildirimi Kapat
Merhaba , site giderlerini bir nebze olsun karşılamak adına link kısaltma servisleri kullanmaya başladık. İndirme linkleri sizi ouo.io adresinde yönlendirecek, 3 saniye geçtikten sonra Get Link butonuna tıklayarak linke ulaşacaksınız. Premium üyeler bu durumdan etkilenmeyecektir.


Premium Üyelik Al

Trüf Avcıları (The Truffle Hunters) - 2020 - TR+ORG - 1080P | tt11394318
BroserBros
Trüf Avcıları (The Truffle Hunters) - 2020 - TR+ORG - 1080P | tt11394318
4
51
  • Derecelendirme: 0/5 - 0 oy
  • 1
  • 2
  • 3
  • 4
  • 5
Konuyu Okuyanlar:1 Ziyaretçi
Şuan Online!
Filmin Yayınlanma Tarihi: 2020 
Şuan Online!
BroserBros Kurucu Admin
*******
Admin


 Trüf Avcıları



The Truffle Hunters, trüf avcılarının hikayesini konu ediyor. Kuzey İtalya'nın ormanlarının derinliklerinde, ödüllü beyaz Alba trüf bulunur. Dünyanın en zengin müşterileri tarafından arzu edilen trüf, nadir bulunduğu için gizemini muhafaza etmeye devam etmektedir. Yetiştirilmesi ve bulunması nerdeyse imkansız olan trüflerin yerini yalnızca eğitimli köpekler bulabilmektedir.

Trüf Avcıları (2020) | tt11394318 Filmi Imdb'den 1,000 kişi tarafından oylandı ve 7,2 puan aldı. Bu film için editör puanı %60 olarak belirlendi. İyi Seyirler!

Teknik Detaylar

Kod :
General
Unique ID                                : 80047873956000225070709429029400477687 (0x3C38A8E4F58BD11DA20BB9169ABBFFF7)
Complete name                            : C:\Users\Administrator\Desktop\4\Trüf.Avcıları.2020.1080p.BluRay.x264.TR.ENG.Filmbol.mkv
Format                                   : Matroska
Format version                           : Version 4
File size                                : 1.53 GiB
Duration                                 : 1 h 24 min
Overall bit rate                         : 2 603 kb/s
Movie name                               : Trüf Avcıları - The Truffle Hunters - 2020 | Filmbol.org
Encoded date                             : UTC 2021-09-24 10:20:17
Writing application                      : mkvmerge v61.0.0 ('So') 64-bit
Writing library                          : libebml v1.4.2 + libmatroska v1.6.4

Video
ID                                       : 1
Format                                   : AVC
Format/Info                              : Advanced Video Codec
Format profile                           : [email protected]
Format settings                          : CABAC / 4 Ref Frames
Format settings, CABAC                   : Yes
Format settings, Reference frames        : 4 frames
Codec ID                                 : V_MPEG4/ISO/AVC
Duration                                 : 1 h 24 min
Bit rate                                 : 2 250 kb/s
Width                                    : 1 920 pixels
Height                                   : 1 024 pixels
Display aspect ratio                     : 1.85:1
Frame rate mode                          : Constant
Frame rate                               : 23.976 (24000/1001) FPS
Color space                              : YUV
Chroma subsampling                       : 4:2:0
Bit depth                                : 8 bits
Scan type                                : Progressive
Bits/(Pixel*Frame)                       : 0.048
Stream size                              : 1.32 GiB (86%)
Title                                    : 1080P - Filmbol.org
Writing library                          : x264 core 161
Encoding settings                        : cabac=1 / ref=4 / deblock=1:-1:-1 / analyse=0x3:0x133 / me=umh / subme=9 / psy=1 / psy_rd=1.00:0.15 / mixed_ref=1 / me_range=24 / chroma_me=1 / trellis=2 / 8x8dct=1 / cqm=0 / deadzone=21,11 / fast_pskip=0 / chroma_qp_offset=-3 / threads=24 / lookahead_threads=2 / sliced_threads=0 / nr=0 / decimate=1 / interlaced=0 / bluray_compat=0 / constrained_intra=0 / bframes=3 / b_pyramid=2 / b_adapt=2 / b_bias=0 / direct=3 / weightb=1 / open_gop=0 / weightp=2 / keyint=250 / keyint_min=23 / scenecut=40 / intra_refresh=0 / rc_lookahead=60 / rc=2pass / mbtree=1 / bitrate=2250 / ratetol=1.0 / qcomp=0.60 / qpmin=0 / qpmax=69 / qpstep=4 / cplxblur=20.0 / qblur=0.5 / vbv_maxrate=31250 / vbv_bufsize=31250 / nal_hrd=none / filler=0 / ip_ratio=1.40 / aq=1:1.00
Default                                  : Yes
Forced                                   : No
Color range                              : Limited
Color primaries                          : BT.709
Transfer characteristics                 : BT.709
Matrix coefficients                      : BT.709

Audio #1
ID                                       : 2
Format                                   : AC-3
Format/Info                              : Audio Coding 3
Commercial name                          : Dolby Digital
Codec ID                                 : A_AC3
Duration                                 : 1 h 24 min
Bit rate mode                            : Constant
Bit rate                                 : 224 kb/s
Channel(s)                               : 2 channels
Channel layout                           : L R
Sampling rate                            : 44.1 kHz
Frame rate                               : 28.711 FPS (1536 SPF)
Compression mode                         : Lossy
Stream size                              : 135 MiB (9%)
Title                                    : Türkçe - Filmbol.org
Language                                 : Turkish
Service kind                             : Complete Main
Default                                  : Yes
Forced                                   : No

Audio #2
ID                                       : 3
Format                                   : AAC LC
Format/Info                              : Advanced Audio Codec Low Complexity
Codec ID                                 : A_AAC-2
Duration                                 : 1 h 23 min
Bit rate                                 : 128 kb/s
Channel(s)                               : 2 channels
Channel layout                           : L R
Sampling rate                            : 48.0 kHz
Frame rate                               : 46.875 FPS (1024 SPF)
Compression mode                         : Lossy
Stream size                              : 76.7 MiB (5%)
Title                                    : Orijinal Dil - Filmbol.org
Language                                 : English
Default                                  : No
Forced                                   : No

Film Detayları


 Trüf Avcıları

 Trüf Avcıları

 Trüf Avcıları


Film Fragmanı


Film İndir



Zip Şifresi: filmbol.org Aşağıdaki butona tıklayarak kopyalabilirsiniz.


Uptobox ile indir

1Fichier ile indir

1Fichier'den İndiremiyor musun? Tıklayın!






Filmbol Cloud

Bunun için üzgünüz ancak, bu linke sadece premium üyeler erişebilir.




WWW
Şuan Offine!
Şuan Offine!
Cr3ViL Yeni Üye
*
Üye
  • Konular0
  • Mesajlar13
  • Rep puanı 0
Teşekkürler.
Şuan Offine!
Şuan Offine!
erkutorenk Yeni Üye
*
Üye
  • Konular0
  • Mesajlar5
  • Rep puanı 0
Teşekkürler.
Şuan Online!
Şuan Online!
angelord Yeni Üye
*
Üye
  • Konular1
  • Mesajlar117
  • Rep puanı 0
teşekkürler
Şuan Offine!
Şuan Offine!
cakirizm Yeni Üye
*
Üye
  • Konular0
  • Mesajlar19
  • Rep puanı 0
Teşekkürler.

Teşekkürler


Hızlı Menü: