Filmbol Forum Film İndir BRRip XviD v Trüf Avcıları (The Truffle Hunters) - 2020 - TR - BRRip XviD | tt11394318
Bildirimi Kapat
Server kaynaklı problemden dolayı ciddi bir sorun yaşadık. Şuanda forum ve portal aktif halde ancak bazı problemler hala devam ediyor. Problem gördüğünüz yerleri bize bildirmeniz çok önemli. Teşekkürler.

Bildirimi Kapat
Merhaba , site giderlerini bir nebze olsun karşılamak adına link kısaltma servisleri kullanmaya başladık. İndirme linkleri sizi ouo.io adresinde yönlendirecek, 3 saniye geçtikten sonra Get Link butonuna tıklayarak linke ulaşacaksınız. Premium üyeler bu durumdan etkilenmeyecektir.


Premium Üyelik Al

Trüf Avcıları (The Truffle Hunters) - 2020 - TR - BRRip XviD | tt11394318
BroserBros
Trüf Avcıları (The Truffle Hunters) - 2020 - TR - BRRip XviD | tt11394318
0
20
  • Derecelendirme: 0/5 - 0 oy
  • 1
  • 2
  • 3
  • 4
  • 5
Konuyu Okuyanlar:1 Ziyaretçi
Şuan Online!
Filmin Yayınlanma Tarihi: 2020 
Şuan Online!
BroserBros Kurucu Admin
*******
Admin


 Trüf Avcıları



The Truffle Hunters, trüf avcılarının hikayesini konu ediyor. Kuzey İtalya'nın ormanlarının derinliklerinde, ödüllü beyaz Alba trüf bulunur. Dünyanın en zengin müşterileri tarafından arzu edilen trüf, nadir bulunduğu için gizemini muhafaza etmeye devam etmektedir. Yetiştirilmesi ve bulunması nerdeyse imkansız olan trüflerin yerini yalnızca eğitimli köpekler bulabilmektedir.

Trüf Avcıları (2020) (The Truffle Hunters) | tt11394318 Filmi Imdb'den 1,000 kişi tarafından oylandı ve 7,2 puan aldı. Bu film için editör puanı %60 olarak belirlendi. İyi Seyirler!

Teknik Detaylar

Kod :
General
Complete name                            : C:\Users\Administrator\Desktop\4\Trüf.Avcıları.2020.BRRip.XviD.TR.Filmbol.avi
Format                                   : AVI
Format/Info                              : Audio Video Interleave
File size                                : 443 MiB
Duration                                 : 1 h 24 min
Overall bit rate                         : 737 kb/s

Video
ID                                       : 0
Format                                   : MPEG-4 Visual
Format profile                           : Advanced [email protected]
Format settings                          : BVOP2
Format settings, BVOP                    : 2
Format settings, QPel                    : No
Format settings, GMC                     : No warppoints
Format settings, Matrix                  : Default (H.263)
Codec ID                                 : XVID
Codec ID/Hint                            : XviD
Duration                                 : 1 h 24 min
Bit rate                                 : 596 kb/s
Width                                    : 600 pixels
Height                                   : 320 pixels
Display aspect ratio                     : 1.85:1
Frame rate                               : 23.976 (24000/1001) FPS
Color space                              : YUV
Chroma subsampling                       : 4:2:0
Bit depth                                : 8 bits
Scan type                                : Progressive
Compression mode                         : Lossy
Bits/(Pixel*Frame)                       : 0.129
Stream size                              : 359 MiB (81%)
Writing library                          : XviD 67

Audio
ID                                       : 1
Format                                   : MPEG Audio
Format version                           : Version 1
Format profile                           : Layer 3
Codec ID                                 : 55
Codec ID/Hint                            : MP3
Duration                                 : 1 h 24 min
Bit rate mode                            : Constant
Bit rate                                 : 128 kb/s
Channel(s)                               : 2 channels
Sampling rate                            : 44.1 kHz
Compression mode                         : Lossy
Stream size                              : 77.1 MiB (17%)
Alignment                                : Aligned on interleaves
Interleave, duration                     : 26  ms (0.63 video frame)
Writing library                          : LAME3.100UUU,–%I$ˆ€

Film Detayları


 Trüf Avcıları

 Trüf Avcıları

 Trüf Avcıları


Film Fragmanı


Film İndir



Zip Şifresi: filmbol.org Aşağıdaki butona tıklayarak kopyalabilirsiniz.



Uptobox ile indir

1Fichier ile indir

1Fichier'den İndiremiyor musun? Tıklayın!






Filmbol Cloud

Bunun için üzgünüz ancak, bu linke sadece premium üyeler erişebilir.




WWW


Hızlı Menü: