Filmbol Forum Film İndir BRRip XviD v Mısır Tanrıları (Gods of Egypt) - 2016 - TR - BRRip XviD | tt2404233
Mega linklerinin şikayet edilmemesi için global erişime kapatıp sadece yorum yapanlara açıyoruz. Bu linkleri gizleme işlemini mecburen yapıyoruz ve yorum yapmanızın siteye değil size faydası vardır. Teşekürler yazmayı çok görüp, Random/Spam mesajlar atarak Mega linklerini açmaya çalışan kullanıcılara önce süresiz ban, devam ederse IP ban atacağız.
Filmbol'da moderatör olmak ister misiniz? Bizimle iletişime geçmek için tıklayın!
Mısır Tanrıları (Gods of Egypt) - 2016 - TR - BRRip XviD | tt2404233
BroserBros
Mısır Tanrıları (Gods of Egypt) - 2016 - TR - BRRip XviD | tt2404233
4
1846
  • Derecelendirme: 0/5 - 0 oy
  • 1
  • 2
  • 3
  • 4
  • 5
Konuyu Okuyanlar:1 Ziyaretçi
Şuan Online!
Filmin Yayınlanma Tarihi: 2016 
WWW
Şuan Online!
BroserBros Kurucu Admin
*******
Admin



 Mısır Tanrıları



Geçmişi çok uzun yıllar olan Mısır hakkında, tam bilgi olmadığından her zaman hikayeler oluşmuştur. Ve bunların çoğu filme dönüştürülmüştür. Mısır Tanrıları bunlardan bir tanesi.

Ra Mısırı ikiye bölmüştür. Bir tarafta kurak çöle hükmeden Set, diğer tarafta zenginlik ve mükemmel bir hayat süren Horus. Ancak Set Babası Ra‘ya sitem ederek, neden kendinin kurak çölleri varken kardeşinin üzüm tarlaları olduğunu sorgulamaya ve onları istemeye başlayacaktır...

Mısır Tanrıları (2016) (Gods of Egypt) | tt2404233 Filmi Imdb'den 150,000 kişi tarafından oylandı ve 5,4 puan aldı. Bu film için editör puanı %70 olarak belirlendi. İyi Seyirler!

Teknik Detaylar

Kod :
General
Unique ID                                : 135726333917749932637550883832340346490 (0x661BF0EA2FDD2A725B43DA3F9A7AF67A)
Complete name                            : /home/BroserBros/Desktop/3/Mısır.Tanrıları.2016.BRRip.XviD.TR.Filmbol.avi
Format                                   : Matroska
Format version                           : Version 4
File size                                : 1.15 GiB
Duration                                 : 2 h 7 min
Overall bit rate                         : 1 296 kb/s
Movie name                               : Mısır Tanrıları - Gods of Egypt - 2016 | Filmbol.org
Encoded date                             : UTC 2021-04-19 12:51:49
Writing application                      : mkvmerge v53.0.0 ('Fool's Gold') 64-bit
Writing library                          : libebml v1.4.1 + libmatroska v1.6.2
FileExtension_Invalid                    : mkv mk3d mka mks

Video
ID                                       : 1
Format                                   : MPEG-4 Visual
Format profile                           : Advanced [email protected]
Format settings                          : BVOP2
Format settings, BVOP                    : 2
Format settings, QPel                    : No
Format settings, GMC                     : No warppoints
Format settings, Matrix                  : Default (H.263)
Muxing mode                              : Packed bitstream
Codec ID                                 : V_MS/VFW/FOURCC / XVID
Codec ID/Hint                            : XviD
Duration                                 : 2 h 7 min
Bit rate                                 : 1 166 kb/s
Width                                    : 720 pixels
Height                                   : 304 pixels
Display aspect ratio                     : 2.35:1
Frame rate mode                          : Constant
Frame rate                               : 23.976 (23976/1000) FPS
Color space                              : YUV
Chroma subsampling                       : 4:2:0
Bit depth                                : 8 bits
Scan type                                : Progressive
Compression mode                         : Lossy
Bits/(Pixel*Frame)                       : 0.222
Stream size                              : 1.04 GiB (90%)
Title                                    : Mısır Tanrıları - Gods of Egypt - 2016 | Filmbol.org
Writing library                          : XviD 66
Default                                  : Yes
Forced                                   : No

Audio
ID                                       : 2
Format                                   : MPEG Audio
Format version                           : Version 1
Format profile                           : Layer 3
Format settings                          : Joint stereo / MS Stereo
Codec ID                                 : A_MPEG/L3
Codec ID/Hint                            : MP3
Duration                                 : 2 h 7 min
Bit rate mode                            : Constant
Bit rate                                 : 128 kb/s
Channel(s)                               : 2 channels
Sampling rate                            : 48.0 kHz
Frame rate                               : 41.667 FPS (1152 SPF)
Compression mode                         : Lossy
Stream size                              : 116 MiB (10%)
Title                                    : Mısır Tanrıları - Gods of Egypt - 2016 | Filmbol.org
Default                                  : Yes
Forced                                   : No

Film Detayları


 Mısır Tanrıları

 Mısır Tanrıları

 Mısır Tanrıları


Film Fragmanı


Film Detayları


Uptobox ile indir

1Fichier ile indir

1Fichier'den İndiremiyor musun? Tıklayın!


Mega linki şuan da gizli. Kullanıma açmak için konuya yorum yapın ve ardından sayfayı yenileyin.

Mega


Bunun için üzgünüz ancak, bu linke sadece premium üyeler erişebilir.

Filmbol Cloud





Şuan Online!
Şuan Online!
BroserBros Kurucu Admin
*******
Admin

08.12.2019 Güncelleme Notu:

Linkler yenilendi. Kırık linkler kaldırıldı ve Genel Konu Düzenlemesi Yapıldı
Şuan Offine!
Şuan Offine!
filmci Yeni Üye
*
Üye

  • Konular0
  • Mesajlar1
  • Rep puanı 0
Bünyelerinde barındırmış oldukları efsanevi yaratıklar, tanrılar, firavunlar ve gerçekleşen savaşlarla her daim favorilerimiz arasında yer almışlardır. Ancak en iyi mitoloji filmleri arasında yer alan yapımlara oranla, bu filmler pek de fazla ilginizi çekmemiş olabilirler. 

Bizler de IMDb puanlarına göre sıralanmış en iyi Mısır yapımı filmleri huzurlarınıza getirmeye karar verdik. Hollywood ve Bollywood yapımlarından sıkılmış olanlar için ideal bir alternatif olabilecek başarılı yapımların yanı sıra farklı ülkeler tarafından beyaz perdeye uyarlanan filmlerin de yer aldığı etkileyici eserlerle sizleri baş başa bırakıyoruz. 

Sizler için hazırladığımız, birbirinden başarılı 20 film önerisi; https://paratic.com/misir-filmleri/

Kutsal Hazine Avcıları
kutsal-hazine-avcilari.jpg

10 Emir
10-emir.jpg

Agora
agora.jpg

Firavunun Gözdesi
firavunun-gozdesi.jpg
Şuan Online!
Şuan Online!
Furkan61 Süper Üye
***
Super Üye

  • Konular0
  • Mesajlar227
  • Rep puanı 4
Güzel
Şuan Online!
Şuan Online!
BroserBros Kurucu Admin
*******
Admin

21.04.2021 Yönetici Notu:

Kırık linkler kontrol edildi, kaldırıldı ve yenilendi. Tüm linkler tamamen çalışır durumda.


Hızlı Menü: