Filmbol Forum Film İndir 720P v Mısır Tanrıları (Gods of Egypt) - 2016 - TR+ORG - 720P | tt2404233
Mega linklerinin şikayet edilmemesi için global erişime kapatıp sadece yorum yapanlara açıyoruz. Bu linkleri gizleme işlemini mecburen yapıyoruz ve yorum yapmanızın siteye değil size faydası vardır. Teşekürler yazmayı çok görüp, Random/Spam mesajlar atarak Mega linklerini açmaya çalışan kullanıcılara önce süresiz ban, devam ederse IP ban atacağız.
Filmbol'da moderatör olmak ister misiniz? Bizimle iletişime geçmek için tıklayın!
Mısır Tanrıları (Gods of Egypt) - 2016 - TR+ORG - 720P | tt2404233
BroserBros
Mısır Tanrıları (Gods of Egypt) - 2016 - TR+ORG - 720P | tt2404233
7
2542
  • Derecelendirme: 0/5 - 0 oy
  • 1
  • 2
  • 3
  • 4
  • 5
Konuyu Okuyanlar:1 Ziyaretçi
Şuan Online!
Filmin Yayınlanma Tarihi: 2016 
WWW
Şuan Online!
BroserBros Kurucu Admin
*******
Admin



 Mısır Tanrıları



Geçmişi çok uzun yıllar olan Mısır hakkında, tam bilgi olmadığından her zaman hikayeler oluşmuştur. Ve bunların çoğu filme dönüştürülmüştür. Mısır Tanrıları bunlardan bir tanesi.

Ra Mısırı ikiye bölmüştür. Bir tarafta kurak çöle hükmeden Set, diğer tarafta zenginlik ve mükemmel bir hayat süren Horus. Ancak Set Babası Ra‘ya sitem ederek, neden kendinin kurak çölleri varken kardeşinin üzüm tarlaları olduğunu sorgulamaya ve onları istemeye başlayacaktır...

Mısır Tanrıları (2016) (Gods of Egypt) | tt2404233 Filmi Imdb'den 150,000 kişi tarafından oylandı ve 5,4 puan aldı. Bu film için editör puanı %70 olarak belirlendi. İyi Seyirler!

Teknik Detaylar

Kod :
General
Unique ID                                : 64407127989885286768096155298342683984 (0x30745C949EDE90C847853FA680BCC550)
Complete name                            : /home/BroserBros/Desktop/3/Mısır.Tanrıları.2016.720p.BluRay.x264.TR.ENG.Filmbol.mkv
Format                                   : Matroska
Format version                           : Version 4
File size                                : 1.25 GiB
Duration                                 : 2 h 7 min
Overall bit rate                         : 1 412 kb/s
Movie name                               : Mısır Tanrıları - Gods of Egypt - 2016 | Filmbol.org
Encoded date                             : UTC 2021-04-19 12:29:34
Writing application                      : mkvmerge v53.0.0 ('Fool's Gold') 64-bit
Writing library                          : libebml v1.4.1 + libmatroska v1.6.2

Video
ID                                       : 1
Format                                   : AVC
Format/Info                              : Advanced Video Codec
Format profile                           : [email protected]
Format settings                          : CABAC / 4 Ref Frames
Format settings, CABAC                   : Yes
Format settings, Reference frames        : 4 frames
Codec ID                                 : V_MPEG4/ISO/AVC
Duration                                 : 2 h 7 min
Bit rate                                 : 900 kb/s
Width                                    : 1 280 pixels
Height                                   : 534 pixels
Display aspect ratio                     : 2.40:1
Original display aspect ratio            : 2.40:1
Frame rate mode                          : Constant
Frame rate                               : 23.976 (24000/1001) FPS
Color space                              : YUV
Chroma subsampling                       : 4:2:0
Bit depth                                : 8 bits
Scan type                                : Progressive
Bits/(Pixel*Frame)                       : 0.055
Stream size                              : 818 MiB (64%)
Title                                    : 720P - Filmbol.org
Writing library                          : x264 core 148
Encoding settings                        : cabac=1 / ref=4 / deblock=1:-1:-1 / analyse=0x3:0x133 / me=umh / subme=9 / psy=1 / psy_rd=1.00:0.15 / mixed_ref=1 / me_range=24 / chroma_me=1 / trellis=2 / 8x8dct=1 / cqm=0 / deadzone=21,11 / fast_pskip=0 / chroma_qp_offset=-3 / threads=12 / lookahead_threads=1 / sliced_threads=0 / nr=0 / decimate=1 / interlaced=0 / bluray_compat=0 / constrained_intra=0 / bframes=3 / b_pyramid=2 / b_adapt=2 / b_bias=0 / direct=3 / weightb=1 / open_gop=0 / weightp=2 / keyint=250 / keyint_min=23 / scenecut=40 / intra_refresh=0 / rc_lookahead=60 / rc=2pass / mbtree=1 / bitrate=900 / ratetol=1.0 / qcomp=0.60 / qpmin=0 / qpmax=69 / qpstep=4 / cplxblur=20.0 / qblur=0.5 / vbv_maxrate=31250 / vbv_bufsize=31250 / nal_hrd=none / filler=0 / ip_ratio=1.40 / aq=1:1.00
Default                                  : Yes
Forced                                   : No

Audio #1
ID                                       : 2
Format                                   : AC-3
Format/Info                              : Audio Coding 3
Commercial name                          : Dolby Digital
Codec ID                                 : A_AC3
Duration                                 : 2 h 7 min
Bit rate mode                            : Constant
Bit rate                                 : 384 kb/s
Channel(s)                               : 6 channels
Channel layout                           : L R C LFE Ls Rs
Sampling rate                            : 48.0 kHz
Frame rate                               : 31.250 FPS (1536 SPF)
Compression mode                         : Lossy
Delay relative to video                  : -43 ms
Stream size                              : 349 MiB (27%)
Title                                    : Türkçe - Filmbol.org
Language                                 : Turkish
Service kind                             : Complete Main
Default                                  : Yes
Forced                                   : No

Audio #2
ID                                       : 3
Format                                   : AAC LC
Format/Info                              : Advanced Audio Codec Low Complexity
Codec ID                                 : A_AAC-2
Duration                                 : 2 h 7 min
Bit rate                                 : 125 kb/s
Channel(s)                               : 2 channels
Channel layout                           : L R
Sampling rate                            : 48.0 kHz
Frame rate                               : 46.875 FPS (1024 SPF)
Compression mode                         : Lossy
Delay relative to video                  : -43 ms
Stream size                              : 114 MiB (9%)
Title                                    : Orjinal Dil - Filmbol.org
Language                                 : English
Default                                  : No
Forced                                   : No

Text
ID                                       : 4
Format                                   : UTF-8
Codec ID                                 : S_TEXT/UTF8
Codec ID/Info                            : UTF-8 Plain Text
Duration                                 : 1 h 56 min
Bit rate                                 : 50 b/s
Count of elements                        : 1108
Stream size                              : 43.4 KiB (0%)
Title                                    : Türkçe - Filmbol.org
Language                                 : Turkish
Default                                  : No
Forced                                   : No

Film Detayları


 Mısır Tanrıları

 Mısır Tanrıları

 Mısır Tanrıları


Film Fragmanı


Film Detayları

Uptobox ile indir

1Fichier ile indir

1Fichier'den İndiremiyor musun? Tıklayın!


Mega linki şuan da gizli. Kullanıma açmak için konuya yorum yapın ve ardından sayfayı yenileyin.

Mega


Bunun için üzgünüz ancak, bu linke sadece premium üyeler erişebilir.

Filmbol Cloud





Şuan Offine!
Şuan Offine!
ahmetyee1 Süper Üye
***
Super Üye

  • Konular3
  • Mesajlar62
  • Rep puanı 0
nkjbkujkg k
Şuan Online!
Şuan Online!
BroserBros Kurucu Admin
*******
Admin

08.12.2019 Güncelleme Notu:

Linkler yenilendi. Kırık linkler kaldırıldı ve Genel Konu Düzenlemesi Yapıldı
Şuan Offine!
Şuan Offine!
Ahmet34 Süper Üye
***
Super Üye

  • Konular0
  • Mesajlar32
  • Rep puanı 0
efsane
Şuan Offine!
Şuan Offine!
draydinozkan Süper Üye
***
Super Üye

  • Konular0
  • Mesajlar57
  • Rep puanı 0
Teşekkürler.
Şuan Offine!
Şuan Offine!
muldex Uzman Üye
**
Uzman Üye

  • Konular0
  • Mesajlar10
  • Rep puanı 0
teşekkürler
Şuan Offine!
Şuan Offine!
stb Süper Üye
***
Super Üye

  • Konular0
  • Mesajlar36
  • Rep puanı 0
teşekkürler
Şuan Online!
Şuan Online!
BroserBros Kurucu Admin
*******
Admin

21.04.2021 Yönetici Notu:

Kırık linkler kontrol edildi, kaldırıldı ve yenilendi. Tüm linkler tamamen çalışır durumda.


Hızlı Menü: