Filmbol Forum Film İndir 1080P v Dağları Deviren Baba (Tata muta muntii - The Father Who Moves Mountains) - 2021 - TR+ORG - 1080P | tt8886670
Bildirimi Kapat
Server kaynaklı problemden dolayı ciddi bir sorun yaşadık. Şuanda forum ve portal aktif halde ancak bazı problemler hala devam ediyor. Problem gördüğünüz yerleri bize bildirmeniz çok önemli. Teşekkürler.

Bildirimi Kapat
Merhaba , site giderlerini bir nebze olsun karşılamak adına link kısaltma servisleri kullanmaya başladık. İndirme linkleri sizi ouo.io adresinde yönlendirecek, 3 saniye geçtikten sonra Get Link butonuna tıklayarak linke ulaşacaksınız. Premium üyeler bu durumdan etkilenmeyecektir.


Premium Üyelik Al

Dağları Deviren Baba (Tata muta muntii - The Father Who Moves Mountains) - 2021 - TR+ORG - 1080P | tt8886670
BroserBros
Dağları Deviren Baba (Tata muta muntii - The Father Who Moves Mountains) - 2021 - TR+ORG - 1080P | tt8886670
0
26
  • Derecelendirme: 0/5 - 0 oy
  • 1
  • 2
  • 3
  • 4
  • 5
Konuyu Okuyanlar:1 Ziyaretçi
Şuan Online!
Filmin Yayınlanma Tarihi: 2021 
Şuan Online!
BroserBros Kurucu Admin
*******
Admin


 Dağları Deviren Baba



Babalar evlatları için yaşar, evlatları için ölümü göze alırlar. Dağları Deviren Baba İndir yada diğer ismiyle The Father Who Moves Mountains İndir bir babanın oğlu için neleri göze alabileceğini ve neler yapabileceğini gözler önüne serecek.

Mircea emekliye ayrılmış bir istihbarat görevlisi olmasının yanında, evlatlarını çok seven bir babadır. Fakat oğlu dağcılık meraklısı olmuş, Mircea buna karşı gelse de oğlu her zaman yeni yerler keşfetmeye ve dağlara tırmanmaya devam etmiştir. Oğlunu ne kadar uyarsa da sonunda korktuğu başına gelmiş ve oğlu bir dağda kaybolmuştur. Arama ve kurtarma çalışmaları devam ederken, beklenenden uzun bir süre geçtikten sonra Mircea'nın oğlundan hiç bir iz yoktur. Bunun üzerine baba ani bir karar ile her şeyi göze alacak ve oğlunu bulmak için kendi ekibini kuracak, oğlunu bulmak için canını tamamen riske atacaktır...

2021 yapımı olan bu filmin yapımcısı Netflix olurken oyun kadrosundaki isimler Adrian Titieni, Elena Purea, Judith State ve yönetmeni ise Daniel Sandu. Film Romanya ve İsveç yapımı olduğundan orijinal ismi Tata muta muntii

Dağları Deviren Baba (2021) | tt8886670 Filmi Imdb'den 2,000 kişi tarafından oylandı ve 5,6 puan aldı. Bu film için editör puanı %60 olarak belirlendi. İyi Seyirler!

Teknik Detaylar

Kod :
General
Unique ID                                : 49079315690149098329598844171232854582 (0x24EC55167284F40FEBAB0C15F3E9C236)
Complete name                            : C:\Users\Administrator\Desktop\1\Dağları.Deviren.Baba.2021.1080p.BluRay.x264.TR.ENG.Filmbol.mkv
Format                                   : Matroska
Format version                           : Version 4
File size                                : 2.96 GiB
Duration                                 : 1 h 49 min
Overall bit rate mode                    : Variable
Overall bit rate                         : 3 855 kb/s
Movie name                               : Dağları Deviren Baba - The Father Who Moves Mountains - 2021 | Filmbol.org
Encoded date                             : UTC 2021-09-21 11:20:14
Writing application                      : mkvmerge v61.0.0 ('So') 64-bit
Writing library                          : libebml v1.4.2 + libmatroska v1.6.4

Video
ID                                       : 1
Format                                   : AVC
Format/Info                              : Advanced Video Codec
Format profile                           : [email protected]
Format settings                          : CABAC / 3 Ref Frames
Format settings, CABAC                   : Yes
Format settings, Reference frames        : 3 frames
Codec ID                                 : V_MPEG4/ISO/AVC
Duration                                 : 1 h 49 min
Bit rate mode                            : Variable
Bit rate                                 : 3 057 kb/s
Maximum bit rate                         : 5 475 kb/s
Width                                    : 1 920 pixels
Height                                   : 1 080 pixels
Display aspect ratio                     : 16:9
Frame rate mode                          : Constant
Frame rate                               : 24.000 FPS
Color space                              : YUV
Chroma subsampling                       : 4:2:0
Bit depth                                : 8 bits
Scan type                                : Progressive
Bits/(Pixel*Frame)                       : 0.061
Stream size                              : 2.32 GiB (78%)
Title                                    : 1080P - Filmbol.org
Writing library                          : x264 core 148 r2722 1b0121b
Encoding settings                        : cabac=1 / ref=3 / deblock=1:0:0 / analyse=0x1:0x111 / me=umh / subme=10 / psy=1 / psy_rd=1.00:0.00 / mixed_ref=1 / me_range=24 / chroma_me=1 / trellis=2 / 8x8dct=0 / cqm=0 / deadzone=21,11 / fast_pskip=1 / chroma_qp_offset=-2 / threads=6 / lookahead_threads=1 / sliced_threads=0 / nr=0 / decimate=1 / interlaced=0 / bluray_compat=0 / stitchable=1 / constrained_intra=0 / bframes=2 / b_pyramid=0 / b_adapt=2 / b_bias=0 / direct=3 / weightb=1 / open_gop=0 / weightp=2 / keyint=250 / keyint_min=24 / scenecut=0 / intra_refresh=0 / rc_lookahead=48 / rc=2pass / mbtree=1 / bitrate=3057 / ratetol=1.0 / qcomp=0.50 / qpmin=6 / qpmax=51 / qpstep=4 / cplxblur=20.0 / qblur=0.5 / vbv_maxrate=5475 / vbv_bufsize=7300 / nal_hrd=vbr / filler=0 / ip_ratio=1.40 / aq=1:1.00
Default                                  : Yes
Forced                                   : No

Audio #1
ID                                       : 2
Format                                   : AC-3
Format/Info                              : Audio Coding 3
Commercial name                          : Dolby Digital
Codec ID                                 : A_AC3
Duration                                 : 1 h 49 min
Bit rate mode                            : Constant
Bit rate                                 : 448 kb/s
Channel(s)                               : 6 channels
Channel layout                           : L R C LFE Ls Rs
Sampling rate                            : 48.0 kHz
Frame rate                               : 31.250 FPS (1536 SPF)
Compression mode                         : Lossy
Delay relative to video                  : 41 ms
Stream size                              : 352 MiB (12%)
Title                                    : Türkçe - Filmbol.org
Language                                 : Turkish
Service kind                             : Complete Main
Default                                  : Yes
Forced                                   : No

Audio #2
ID                                       : 3
Format                                   : AC-3
Format/Info                              : Audio Coding 3
Commercial name                          : Dolby Digital
Codec ID                                 : A_AC3
Duration                                 : 1 h 49 min
Bit rate mode                            : Constant
Bit rate                                 : 384 kb/s
Channel(s)                               : 6 channels
Channel layout                           : L R C LFE Ls Rs
Sampling rate                            : 48.0 kHz
Frame rate                               : 31.250 FPS (1536 SPF)
Compression mode                         : Lossy
Delay relative to video                  : 41 ms
Stream size                              : 302 MiB (10%)
Title                                    : Orijinal Dil - Filmbol.org
Language                                 : Romanian
Service kind                             : Complete Main
Default                                  : Yes
Forced                                   : No

Text #1
ID                                       : 4
Format                                   : UTF-8
Codec ID                                 : S_TEXT/UTF8
Codec ID/Info                            : UTF-8 Plain Text
Duration                                 : 1 h 48 min
Bit rate                                 : 0 b/s
Count of elements                        : 4
Stream size                              : 78.0 Bytes (0%)
Title                                    : Türkçe - Filmbol.org
Language                                 : Turkish
Default                                  : Yes
Forced                                   : Yes

Text #2
ID                                       : 5
Format                                   : UTF-8
Codec ID                                 : S_TEXT/UTF8
Codec ID/Info                            : UTF-8 Plain Text
Duration                                 : 1 h 48 min
Bit rate                                 : 44 b/s
Count of elements                        : 1073
Stream size                              : 35.5 KiB (0%)
Title                                    : Türkçe - Filmbol.org
Language                                 : Turkish
Default                                  : No
Forced                                   : No

Film Detayları


 Dağları Deviren Baba

 Dağları Deviren Baba

 Dağları Deviren Baba


Film Fragmanı


Film İndir



Zip Şifresi: filmbol.org Aşağıdaki butona tıklayarak kopyalabilirsiniz.


Uptobox ile indir

1Fichier ile indir

1Fichier'den İndiremiyor musun? Tıklayın!






Filmbol Cloud

Bunun için üzgünüz ancak, bu linke sadece premium üyeler erişebilir.




WWW


Hızlı Menü: