Filmbol Forum Film İndir BRRip XviD v Dağları Deviren Baba (Tata muta muntii - The Father Who Moves Mountains) - 2021 - TR - BRRip XviD | tt8886670
Bildirimi Kapat
Server kaynaklı problemden dolayı ciddi bir sorun yaşadık. Şuanda forum ve portal aktif halde ancak bazı problemler hala devam ediyor. Problem gördüğünüz yerleri bize bildirmeniz çok önemli. Teşekkürler.

Bildirimi Kapat
Merhaba , site giderlerini bir nebze olsun karşılamak adına link kısaltma servisleri kullanmaya başladık. İndirme linkleri sizi ouo.io adresinde yönlendirecek, 3 saniye geçtikten sonra Get Link butonuna tıklayarak linke ulaşacaksınız. Premium üyeler bu durumdan etkilenmeyecektir.


Premium Üyelik Al

Dağları Deviren Baba (Tata muta muntii - The Father Who Moves Mountains) - 2021 - TR - BRRip XviD | tt8886670
BroserBros
Dağları Deviren Baba (Tata muta muntii - The Father Who Moves Mountains) - 2021 - TR - BRRip XviD | tt8886670
0
17
  • Derecelendirme: 0/5 - 0 oy
  • 1
  • 2
  • 3
  • 4
  • 5
Konuyu Okuyanlar:1 Ziyaretçi
Şuan Online!
Filmin Yayınlanma Tarihi: 2021 
Şuan Online!
BroserBros Kurucu Admin
*******
Admin


 Dağları Deviren Baba



Babalar evlatları için yaşar, evlatları için ölümü göze alırlar. Dağları Deviren Baba İndir yada diğer ismiyle The Father Who Moves Mountains İndir bir babanın oğlu için neleri göze alabileceğini ve neler yapabileceğini gözler önüne serecek.

Mircea emekliye ayrılmış bir istihbarat görevlisi olmasının yanında, evlatlarını çok seven bir babadır. Fakat oğlu dağcılık meraklısı olmuş, Mircea buna karşı gelse de oğlu her zaman yeni yerler keşfetmeye ve dağlara tırmanmaya devam etmiştir. Oğlunu ne kadar uyarsa da sonunda korktuğu başına gelmiş ve oğlu bir dağda kaybolmuştur. Arama ve kurtarma çalışmaları devam ederken, beklenenden uzun bir süre geçtikten sonra Mircea'nın oğlundan hiç bir iz yoktur. Bunun üzerine baba ani bir karar ile her şeyi göze alacak ve oğlunu bulmak için kendi ekibini kuracak, oğlunu bulmak için canını tamamen riske atacaktır...

2021 yapımı olan bu filmin yapımcısı Netflix olurken oyun kadrosundaki isimler Adrian Titieni, Elena Purea, Judith State ve yönetmeni ise Daniel Sandu. Film Romanya ve İsveç yapımı olduğundan orijinal ismi Tata muta muntii

Dağları Deviren Baba (2021) (Tata muta muntii - The Father Who Moves Mountains) | tt8886670 Filmi Imdb'den 2,000 kişi tarafından oylandı ve 5,6 puan aldı. Bu film için editör puanı %60 olarak belirlendi. İyi Seyirler!

Teknik Detaylar

Kod :
General
Complete name                            : C:\Users\Administrator\Desktop\1\Dağları.Deviren.Baba.2021.BRRip.XviD.TR.Filmbol.avi
Format                                   : AVI
Format/Info                              : Audio Video Interleave
File size                                : 1.29 GiB
Duration                                 : 1 h 49 min
Overall bit rate                         : 1 686 kb/s
Movie name                               : filmbol.org
Writing application                      : VirtualDubMod 1.5.10.2 (build 2540/release)
Writing library                          : VirtualDubMod build 2540/release

Video
ID                                       : 0
Format                                   : MPEG-4 Visual
Format profile                           : Advanced [email protected]
Format settings                          : BVOP2 / Custom Matrix
Format settings, BVOP                    : 2
Format settings, QPel                    : No
Format settings, GMC                     : No warppoints
Format settings, Matrix                  : Custom
Codec ID                                 : XVID
Codec ID/Hint                            : XviD
Duration                                 : 1 h 49 min
Bit rate                                 : 1 549 kb/s
Width                                    : 720 pixels
Height                                   : 336 pixels
Display aspect ratio                     : 2.143
Frame rate                               : 24.000 FPS
Color space                              : YUV
Chroma subsampling                       : 4:2:0
Bit depth                                : 8 bits
Scan type                                : Progressive
Compression mode                         : Lossy
Bits/(Pixel*Frame)                       : 0.267
Stream size                              : 1.19 GiB (92%)
Writing library                          : XviD 67

Audio
ID                                       : 1
Format                                   : MPEG Audio
Format version                           : Version 1
Format profile                           : Layer 3
Format settings                          : Joint stereo / MS Stereo
Codec ID                                 : 55
Codec ID/Hint                            : MP3
Duration                                 : 1 h 49 min
Bit rate mode                            : Constant
Bit rate                                 : 128 kb/s
Channel(s)                               : 2 channels
Sampling rate                            : 48.0 kHz
Compression mode                         : Lossy
Stream size                              : 101 MiB (8%)
Alignment                                : Aligned on interleaves
Interleave, duration                     : 42  ms (1.00 video frame)
Interleave, preload duration             : 504  ms
Writing library                          : LAME3.98.4
Language                                 : Belirsiz

Film Detayları


 Dağları Deviren Baba

 Dağları Deviren Baba

 Dağları Deviren Baba


Film Fragmanı


Film İndir



Zip Şifresi: filmbol.org Aşağıdaki butona tıklayarak kopyalabilirsiniz.



Uptobox ile indir

1Fichier ile indir

1Fichier'den İndiremiyor musun? Tıklayın!






Filmbol Cloud

Bunun için üzgünüz ancak, bu linke sadece premium üyeler erişebilir.




WWW


Hızlı Menü: