Filmbol Forum Film İndir 720P v Beyaz Köpekbalığı (Great White) - 2021 - TR+ORG - 720P | tt8435002
Bildirimi Kapat
Server kaynaklı problemden dolayı ciddi bir sorun yaşadık. Şuanda forum ve portal aktif halde ancak bazı problemler hala devam ediyor. Problem gördüğünüz yerleri bize bildirmeniz çok önemli. Teşekkürler.

Bildirimi Kapat
Merhaba , site giderlerini bir nebze olsun karşılamak adına link kısaltma servisleri kullanmaya başladık. İndirme linkleri sizi ouo.io adresinde yönlendirecek, 3 saniye geçtikten sonra Get Link butonuna tıklayarak linke ulaşacaksınız. Premium üyeler bu durumdan etkilenmeyecektir.


Premium Üyelik Al

Beyaz Köpekbalığı (Great White) - 2021 - TR+ORG - 720P | tt8435002
BroserBros
Beyaz Köpekbalığı (Great White) - 2021 - TR+ORG - 720P | tt8435002
0
35
  • Derecelendirme: 0/5 - 0 oy
  • 1
  • 2
  • 3
  • 4
  • 5
Konuyu Okuyanlar:1 Ziyaretçi
Şuan Online!
Filmin Yayınlanma Tarihi: 2021 
Şuan Online!
BroserBros Kurucu Admin
*******
Admin


 Beyaz Köpekbalığı



Köpekbalıkları gerçekten ürkütücü varlıklar. Hızlı hareket etmeleri ve acımasız bir şekilde hedeflerini öldürmesi ile tanınan bu deniz hayvanları, çok fazla insan öldürdüğü söylenemez. Ancak varlıkları ve yaptıkları kabus görmenize sebep olacak düzeyde. Great White filmi yine bu köpek balıklarını konu ediniyor ve bu acımasız hayvanın neler yapabileceğini tekrar gözler önüne seriyor.

Bir grup gençlerin tatil amacı ile gittikleri adada eğlence pek istedikleri gibi gitmez. Bu adanın sahil kesiminde çok ciddi miktarda aç köpekbalıkları vardır ve denize giren herkese saldırmaya başlarlar. Bunun üzerine gençler bu adadan kaçmaya karar verir. Uçağa binen ve bir an önce buradan uzaklaşmak isteyen gençlerin önüne uçak engeli çıkar. Uçağın arıza yapması ile işler ciddi manada sarpa sarar ve buradan kurtulma yolları daralır...

2021 yapımı olan bu filmin oyuncu kadrosunda Katrina Bowden, Aaron Jakubenko, Kimie Tsukakoshi gibi isimler yer alırken yönetmen koltuğuna ise Martin Wilson oturuyor...

Beyaz Köpekbalığı (2021) (Great White) | tt8435002 Filmi Imdb'den 5,000 kişi tarafından oylandı ve 4,1 puan aldı. Bu film için editör puanı %50 olarak belirlendi. İyi Seyirler!

Teknik Detaylar

Kod :
General
Unique ID                                : 105973541996855201802467498530974813936 (0x4FB9C3044E4CB07E88BA17D4A9AD4EF0)
Complete name                            : C:\Users\Administrator\Desktop\3\Beyaz.Köpekbalığı.2021.720p.BluRay.x264.TR.ENG.Filmbol.mkv
Format                                  : Matroska
Format version                          : Version 4
File size                                : 1.10 GiB
Duration                                : 1 h 31 min
Overall bit rate                        : 1 728 kb/s
Movie name                              : Beyaz Köpekbalığı - Great White - 2021 | Filmbol.org
Encoded date                            : UTC 2021-09-19 07:39:11
Writing application                      : mkvmerge v61.0.0 ('So') 64-bit
Writing library                          : libebml v1.4.2 + libmatroska v1.6.4

Video
ID                                      : 1
Format                                  : AVC
Format/Info                              : Advanced Video Codec
Format profile                          : [email protected]
Format settings                          : CABAC / 4 Ref Frames
Format settings, CABAC                  : Yes
Format settings, Reference frames        : 4 frames
Codec ID                                : V_MPEG4/ISO/AVC
Duration                                : 1 h 31 min
Bit rate                                : 1 150 kb/s
Width                                    : 1 280 pixels
Height                                  : 534 pixels
Display aspect ratio                    : 2.40:1
Original display aspect ratio            : 2.40:1
Frame rate mode                          : Constant
Frame rate                              : 24.000 FPS
Color space                              : YUV
Chroma subsampling                      : 4:2:0
Bit depth                                : 8 bits
Scan type                                : Progressive
Bits/(Pixel*Frame)                      : 0.070
Stream size                              : 751 MiB (67%)
Title                                    : 720P - Filmbol.org
Writing library                          : x264 core 161
Encoding settings                        : cabac=1 / ref=4 / deblock=1:-1:-1 / analyse=0x3:0x133 / me=umh / subme=9 / psy=1 / psy_rd=1.00:0.15 / mixed_ref=1 / me_range=24 / chroma_me=1 / trellis=2 / 8x8dct=1 / cqm=0 / deadzone=21,11 / fast_pskip=0 / chroma_qp_offset=-3 / threads=17 / lookahead_threads=1 / sliced_threads=0 / nr=0 / decimate=1 / interlaced=0 / bluray_compat=0 / constrained_intra=0 / bframes=3 / b_pyramid=2 / b_adapt=2 / b_bias=0 / direct=3 / weightb=1 / open_gop=0 / weightp=2 / keyint=250 / keyint_min=23 / scenecut=40 / intra_refresh=0 / rc_lookahead=60 / rc=2pass / mbtree=1 / bitrate=1150 / ratetol=1.0 / qcomp=0.60 / qpmin=0 / qpmax=69 / qpstep=4 / cplxblur=20.0 / qblur=0.5 / vbv_maxrate=31250 / vbv_bufsize=31250 / nal_hrd=none / filler=0 / ip_ratio=1.40 / aq=1:1.00
Default                                  : Yes
Forced                                  : No

Audio #1
ID                                      : 2
Format                                  : AC-3
Format/Info                              : Audio Coding 3
Commercial name                          : Dolby Digital
Codec ID                                : A_AC3
Duration                                : 1 h 31 min
Bit rate mode                            : Constant
Bit rate                                : 448 kb/s
Channel(s)                              : 6 channels
Channel layout                          : L R C LFE Ls Rs
Sampling rate                            : 48.0 kHz
Frame rate                              : 31.250 FPS (1536 SPF)
Compression mode                        : Lossy
Delay relative to video                  : -21 ms
Stream size                              : 293 MiB (26%)
Title                                    : Türkçe - Filmbol.org
Language                                : Turkish
Service kind                            : Complete Main
Default                                  : Yes
Forced                                  : No

Audio #2
ID                                      : 3
Format                                  : AAC LC
Format/Info                              : Advanced Audio Codec Low Complexity
Codec ID                                : A_AAC-2
Duration                                : 1 h 31 min
Bit rate                                : 128 kb/s
Channel(s)                              : 2 channels
Channel layout                          : L R
Sampling rate                            : 48.0 kHz
Frame rate                              : 46.875 FPS (1024 SPF)
Compression mode                        : Lossy
Delay relative to video                  : -21 ms
Stream size                              : 83.5 MiB (7%)
Title                                    : Orijinal Dil - Filmbol.org
Language                                : English
Default                                  : Yes
Forced                                  : No

Text #1
ID                                      : 4
Format                                  : UTF-8
Codec ID                                : S_TEXT/UTF8
Codec ID/Info                            : UTF-8 Plain Text
Duration                                : 5 min 35 s
Bit rate                                : 1 b/s
Count of elements                        : 2
Stream size                              : 60.0 Bytes (0%)
Title                                    : Türkçe - Filmbol.org
Language                                : Turkish
Default                                  : Yes
Forced                                  : Yes

Text #2
ID                                      : 5
Format                                  : UTF-8
Codec ID                                : S_TEXT/UTF8
Codec ID/Info                            : UTF-8 Plain Text
Duration                                : 1 h 17 min
Bit rate                                : 25 b/s
Count of elements                        : 578
Stream size                              : 14.7 KiB (0%)
Title                                    : Türkçe - Filmbol.org
Language                                : Turkish
Default                                  : No
Forced                                  : No

Film Detayları


 Beyaz Köpekbalığı

 Beyaz Köpekbalığı

 Beyaz Köpekbalığı


Film Fragmanı


Film İndir



Zip Şifresi: filmbol.org Aşağıdaki butona tıklayarak kopyalabilirsiniz.


Uptobox ile indir

1Fichier ile indir

1Fichier'den İndiremiyor musun? Tıklayın!






Filmbol Cloud

Bunun için üzgünüz ancak, bu linke sadece premium üyeler erişebilir.




WWW


Hızlı Menü: