Filmbol Forum Film İndir BRRip XviD v Beyaz Köpekbalığı (Great White) - 2021 - TR - BRRip XviD | tt8435002
Bildirimi Kapat
Server kaynaklı problemden dolayı ciddi bir sorun yaşadık. Şuanda forum ve portal aktif halde ancak bazı problemler hala devam ediyor. Problem gördüğünüz yerleri bize bildirmeniz çok önemli. Teşekkürler.

Bildirimi Kapat
Merhaba , site giderlerini bir nebze olsun karşılamak adına link kısaltma servisleri kullanmaya başladık. İndirme linkleri sizi ouo.io adresinde yönlendirecek, 3 saniye geçtikten sonra Get Link butonuna tıklayarak linke ulaşacaksınız. Premium üyeler bu durumdan etkilenmeyecektir.


Premium Üyelik Al

Beyaz Köpekbalığı (Great White) - 2021 - TR - BRRip XviD | tt8435002
BroserBros
Beyaz Köpekbalığı (Great White) - 2021 - TR - BRRip XviD | tt8435002
1
48
  • Derecelendirme: 0/5 - 0 oy
  • 1
  • 2
  • 3
  • 4
  • 5
Konuyu Okuyanlar:1 Ziyaretçi
Şuan Online!
Filmin Yayınlanma Tarihi: 2021 
Şuan Online!
BroserBros Kurucu Admin
*******
Admin


 Beyaz Köpekbalığı



Köpekbalıkları gerçekten ürkütücü varlıklar. Hızlı hareket etmeleri ve acımasız bir şekilde hedeflerini öldürmesi ile tanınan bu deniz hayvanları, çok fazla insan öldürdüğü söylenemez. Ancak varlıkları ve yaptıkları kabus görmenize sebep olacak düzeyde. Great White filmi yine bu köpek balıklarını konu ediniyor ve bu acımasız hayvanın neler yapabileceğini tekrar gözler önüne seriyor.

Bir grup gençlerin tatil amacı ile gittikleri adada eğlence pek istedikleri gibi gitmez. Bu adanın sahil kesiminde çok ciddi miktarda aç köpekbalıkları vardır ve denize giren herkese saldırmaya başlarlar. Bunun üzerine gençler bu adadan kaçmaya karar verir. Uçağa binen ve bir an önce buradan uzaklaşmak isteyen gençlerin önüne uçak engeli çıkar. Uçağın arıza yapması ile işler ciddi manada sarpa sarar ve buradan kurtulma yolları daralır...

2021 yapımı olan bu filmin oyuncu kadrosunda Katrina Bowden, Aaron Jakubenko, Kimie Tsukakoshi gibi isimler yer alırken yönetmen koltuğuna ise Martin Wilson oturuyor...

Beyaz Köpekbalığı (2021) (Great White) | tt8435002 Filmi Imdb'den 5,000 kişi tarafından oylandı ve 4,1 puan aldı. Bu film için editör puanı %50 olarak belirlendi. İyi Seyirler!

Teknik Detaylar

Kod :
General
Complete name                            : C:\Users\Administrator\Desktop\3\Beyaz.Köpekbalığı.2021.BRRip.XviD.TR.Filmbol.avi
Format                                  : AVI
Format/Info                              : Audio Video Interleave
File size                                : 1.08 GiB
Duration                                : 1 h 31 min
Overall bit rate                        : 1 690 kb/s
Writing application                      : VirtualDubMod 1.5.10.2 (build 2540/release)
Writing library                          : VirtualDubMod build 2540/release

Video
ID                                      : 0
Format                                  : MPEG-4 Visual
Format profile                          : Advanced [email protected]
Format settings                          : BVOP2 / Custom Matrix
Format settings, BVOP                    : 2
Format settings, QPel                    : No
Format settings, GMC                    : No warppoints
Format settings, Matrix                  : Custom
Codec ID                                : XVID
Codec ID/Hint                            : XviD
Duration                                : 1 h 31 min
Bit rate                                : 1 552 kb/s
Width                                    : 720 pixels
Height                                  : 304 pixels
Display aspect ratio                    : 2.35:1
Frame rate                              : 24.000 FPS
Color space                              : YUV
Chroma subsampling                      : 4:2:0
Bit depth                                : 8 bits
Scan type                                : Progressive
Compression mode                        : Lossy
Bits/(Pixel*Frame)                      : 0.295
Stream size                              : 1 014 MiB (92%)
Writing library                          : XviD 67

Audio
ID                                      : 1
Format                                  : MPEG Audio
Format version                          : Version 1
Format profile                          : Layer 3
Format settings                          : Joint stereo / MS Stereo
Codec ID                                : 55
Codec ID/Hint                            : MP3
Duration                                : 1 h 31 min
Bit rate mode                            : Constant
Bit rate                                : 128 kb/s
Channel(s)                              : 2 channels
Sampling rate                            : 48.0 kHz
Compression mode                        : Lossy
Stream size                              : 83.6 MiB (8%)
Alignment                                : Aligned on interleaves
Interleave, duration                    : 42  ms (1.00 video frame)
Interleave, preload duration            : 504  ms
Writing library                          : LAME3.98.4
Language                                : Belirsiz

Film Detayları


 Beyaz Köpekbalığı

 Beyaz Köpekbalığı

 Beyaz Köpekbalığı


Film Fragmanı


Film İndir



Zip Şifresi: filmbol.org Aşağıdaki butona tıklayarak kopyalabilirsiniz.



Uptobox ile indir

1Fichier ile indir

1Fichier'den İndiremiyor musun? Tıklayın!






Filmbol Cloud

Bunun için üzgünüz ancak, bu linke sadece premium üyeler erişebilir.




WWW
Şuan Offine!
Şuan Offine!
ejder22 Yeni Üye
*
Üye
  • Konular0
  • Mesajlar1
  • Rep puanı 0
Teşekkürler...


Hızlı Menü: