Filmbol Forum Film İndir BRRip XviD v Kung Fu Panda 3 (Kung Fu Panda 3) - 2016 - TR - BRRip XviD | tt2267968
Mega linklerinin şikayet edilmemesi için global erişime kapatıp sadece yorum yapanlara açıyoruz. Bu linkleri gizleme işlemini mecburen yapıyoruz ve yorum yapmanızın siteye değil size faydası vardır. Teşekürler yazmayı çok görüp, Random/Spam mesajlar atarak Mega linklerini açmaya çalışan kullanıcılara önce süresiz ban, devam ederse IP ban atacağız.
Filmbol'da moderatör olmak ister misiniz? Bizimle iletişime geçmek için tıklayın!
Kung Fu Panda 3 (Kung Fu Panda 3) - 2016 - TR - BRRip XviD | tt2267968
BroserBros
Kung Fu Panda 3 (Kung Fu Panda 3) - 2016 - TR - BRRip XviD | tt2267968
3
3743
  • Derecelendirme: 0/5 - 0 oy
  • 1
  • 2
  • 3
  • 4
  • 5
Konuyu Okuyanlar:1 Ziyaretçi
Şuan Online!
Filmin Yayınlanma Tarihi: 2016 
WWW
Şuan Online!
BroserBros Kurucu Admin
*******
Admin



 Kung Fu Panda 3



Animasyon tarihinin en başarılı serilerinden biri olan KUNG FU PANDA 3, şu ana kadar ki en komik macerasıyla geri dönüyor. Po’nun uzun süredir kayıp olan panda babası ortaya çıkınca tekrar bir araya gelirler. İkili müthiş yeni pandalarla tanışmak için gizli panda cennetine doğru yola çıkarlar. Ancak doğaüstü kötü adam Kai’nin, bütün Çin’deki kung fu ustalarını yenmeye başlaması üzerine, Po imkansız bir görevi yerine getirmeye çalışır. Bir köy dolusu cana yakın, sakar pandayı eğitmeli ve onları Panda ustası haline getirmelidir.
Yönetmenliğini ikinci filmde de olduğu gibi yine Jennifer Yuh’un üstlendiği sevilen animasyon yapımda senaryo gene Jonathan Aibel ve Glenn Berger ikilisine ait. Filmin orijinal seslendirme kadrosunda Po’ya Jack Black hayat verirken, kendisine Dustin Hoffman, David Cross, James Hong, Angelina Jolie, Lucy Liu, Seth Rogen ve Mads Mikkelsen’den oluşan efsane bir ekip eşlik ediyor.

Kung Fu Panda 3 (2016) (Kung Fu Panda 3) | tt2267968 Filmi Imdb'den 140,000 kişi tarafından oylandı ve 7,1 puan aldı. Bu film için editör puanı %75 olarak belirlendi. İyi Seyirler!

Teknik Detaylar

Kod :
General
Unique ID                                : 15473990242605483124443958535892109955 (0xBA42E9F33DDFA12DC37BBBE142A0A83)
Complete name                            : /home/BroserBros/Desktop/5/Kung.Fu.Panda.3.2016.BRRip.XViD.TR.Filmbol.avi
Format                                   : Matroska
Format version                           : Version 4
File size                                : 1.18 GiB
Duration                                 : 1 h 34 min
Overall bit rate                         : 1 779 kb/s
Movie name                               : Kung Fu Panda 3 - 2016 | Filmbol.org
Encoded date                             : UTC 2021-04-16 15:23:37
Writing application                      : mkvmerge v53.0.0 ('Fool's Gold') 64-bit
Writing library                          : libebml v1.4.1 + libmatroska v1.6.2
FileExtension_Invalid                    : mkv mk3d mka mks

Video
ID                                       : 1
Format                                   : MPEG-4 Visual
Format profile                           : Advanced [email protected]
Format settings                          : BVOP2
Format settings, BVOP                    : 2
Format settings, QPel                    : No
Format settings, GMC                     : No warppoints
Format settings, Matrix                  : Default (H.263)
Muxing mode                              : Packed bitstream
Codec ID                                 : V_MS/VFW/FOURCC / XVID
Codec ID/Hint                            : XviD
Duration                                 : 1 h 34 min
Bit rate                                 : 1 649 kb/s
Width                                    : 720 pixels
Height                                   : 304 pixels
Display aspect ratio                     : 2.35:1
Frame rate mode                          : Constant
Frame rate                               : 23.976 (23976/1000) FPS
Color space                              : YUV
Chroma subsampling                       : 4:2:0
Bit depth                                : 8 bits
Scan type                                : Progressive
Compression mode                         : Lossy
Bits/(Pixel*Frame)                       : 0.314
Stream size                              : 1.09 GiB (93%)
Title                                    : Kung Fu Panda 3 - 2016 | Filmbol.org
Writing library                          : XviD 66
Default                                  : Yes
Forced                                   : No

Audio
ID                                       : 2
Format                                   : MPEG Audio
Format version                           : Version 1
Format profile                           : Layer 3
Format settings                          : Joint stereo / MS Stereo
Codec ID                                 : A_MPEG/L3
Codec ID/Hint                            : MP3
Duration                                 : 1 h 34 min
Bit rate mode                            : Constant
Bit rate                                 : 128 kb/s
Channel(s)                               : 2 channels
Sampling rate                            : 48.0 kHz
Frame rate                               : 41.667 FPS (1152 SPF)
Compression mode                         : Lossy
Stream size                              : 86.9 MiB (7%)
Title                                    : Kung Fu Panda 3 - 2016 | Filmbol.org
Default                                  : Yes
Forced                                   : No

Film Detayları


 Kung Fu Panda 3

 Kung Fu Panda 3

 Kung Fu Panda 3


Film Fragmanı


Film Detayları


Uptobox ile indir

1Fichier ile indir

1Fichier'den İndiremiyor musun? Tıklayın!


Mega linki şuan da gizli. Kullanıma açmak için konuya yorum yapın ve ardından sayfayı yenileyin.

Mega


Bunun için üzgünüz ancak, bu linke sadece premium üyeler erişebilir.

Filmbol Cloud





Şuan Offine!
Şuan Offine!
abdullah06 Uzman Üye
**
Uzman Üye

  • Konular0
  • Mesajlar6
  • Rep puanı 0
teşekkürler
Şuan Offine!
Şuan Offine!
haytoki Uzman Üye
**
Uzman Üye

  • Konular0
  • Mesajlar14
  • Rep puanı 0
teşekkürler
Şuan Online!
Şuan Online!
BroserBros Kurucu Admin
*******
Admin

18.04.2021 Yönetici Notu:

Kırık linkler kontrol edildi, kaldırıldı ve yenilendi. Tüm linkler tamamen çalışır durumda.


Hızlı Menü: