Filmbol Forum Film İndir 1080P v Kung Fu Panda 3 (Kung Fu Panda 3) - 2016 - TR+ORG - 1080P | tt2267968
Mega linklerinin şikayet edilmemesi için global erişime kapatıp sadece yorum yapanlara açıyoruz. Bu linkleri gizleme işlemini mecburen yapıyoruz ve yorum yapmanızın siteye değil size faydası vardır. Teşekürler yazmayı çok görüp, Random/Spam mesajlar atarak Mega linklerini açmaya çalışan kullanıcılara önce süresiz ban, devam ederse IP ban atacağız.
Filmbol'da moderatör olmak ister misiniz? Bizimle iletişime geçmek için tıklayın!
Kung Fu Panda 3 (Kung Fu Panda 3) - 2016 - TR+ORG - 1080P | tt2267968
BroserBros
Kung Fu Panda 3 (Kung Fu Panda 3) - 2016 - TR+ORG - 1080P | tt2267968
18
7755
  • Derecelendirme: 4.67/5 - 3 oy
  • 1
  • 2
  • 3
  • 4
  • 5
Konuyu Okuyanlar:1 Ziyaretçi
Şuan Online!
Filmin Yayınlanma Tarihi: 2016 
WWW
Şuan Online!
BroserBros Kurucu Admin
*******
Admin



 Kung Fu Panda 3



Animasyon tarihinin en başarılı serilerinden biri olan KUNG FU PANDA 3, şu ana kadar ki en komik macerasıyla geri dönüyor. Po’nun uzun süredir kayıp olan panda babası ortaya çıkınca tekrar bir araya gelirler. İkili müthiş yeni pandalarla tanışmak için gizli panda cennetine doğru yola çıkarlar. Ancak doğaüstü kötü adam Kai’nin, bütün Çin’deki kung fu ustalarını yenmeye başlaması üzerine, Po imkansız bir görevi yerine getirmeye çalışır. Bir köy dolusu cana yakın, sakar pandayı eğitmeli ve onları Panda ustası haline getirmelidir.
Yönetmenliğini ikinci filmde de olduğu gibi yine Jennifer Yuh’un üstlendiği sevilen animasyon yapımda senaryo gene Jonathan Aibel ve Glenn Berger ikilisine ait. Filmin orijinal seslendirme kadrosunda Po’ya Jack Black hayat verirken, kendisine Dustin Hoffman, David Cross, James Hong, Angelina Jolie, Lucy Liu, Seth Rogen ve Mads Mikkelsen’den oluşan efsane bir ekip eşlik ediyor.

Kung Fu Panda 3 (2016) (Kung Fu Panda 3) | tt2267968 Filmi Imdb'den 140,000 kişi tarafından oylandı ve 7,1 puan aldı. Bu film için editör puanı %75 olarak belirlendi. İyi Seyirler!

Teknik Detaylar

Kod :
General
Unique ID                                : 329679280048256726501389210013732141539 (0xF805EB74A9E6277D82F0318673FB79E3)
Complete name                            : /home/BroserBros/Desktop/5/Kung.Fu.Panda.3.2016.1080p.BluRay.x264.TR.ENG.Filmbol.mkv
Format                                   : Matroska
Format version                           : Version 4
File size                                : 1.74 GiB
Duration                                 : 1 h 34 min
Overall bit rate                         : 2 628 kb/s
Movie name                               : Kung Fu Panda 3 - 2016 | Filmbol.org
Encoded date                             : UTC 2021-04-16 15:17:20
Writing application                      : mkvmerge v53.0.0 ('Fool's Gold') 64-bit
Writing library                          : libebml v1.4.1 + libmatroska v1.6.2

Video
ID                                       : 1
Format                                   : AVC
Format/Info                              : Advanced Video Codec
Format profile                           : [email protected]
Format settings                          : CABAC / 4 Ref Frames
Format settings, CABAC                   : Yes
Format settings, Reference frames        : 4 frames
Codec ID                                 : V_MPEG4/ISO/AVC
Duration                                 : 1 h 34 min
Bit rate                                 : 2 050 kb/s
Width                                    : 1 920 pixels
Height                                   : 816 pixels
Display aspect ratio                     : 2.35:1
Frame rate mode                          : Constant
Frame rate                               : 23.976 (24000/1001) FPS
Color space                              : YUV
Chroma subsampling                       : 4:2:0
Bit depth                                : 8 bits
Scan type                                : Progressive
Bits/(Pixel*Frame)                       : 0.055
Stream size                              : 1.36 GiB (78%)
Title                                    : 1080P - Filmbol.org
Writing library                          : x264 core 148
Encoding settings                        : cabac=1 / ref=4 / deblock=1:-1:-1 / analyse=0x3:0x133 / me=umh / subme=9 / psy=1 / psy_rd=1.00:0.15 / mixed_ref=1 / me_range=24 / chroma_me=1 / trellis=2 / 8x8dct=1 / cqm=0 / deadzone=21,11 / fast_pskip=0 / chroma_qp_offset=-3 / threads=12 / lookahead_threads=1 / sliced_threads=0 / nr=0 / decimate=1 / interlaced=0 / bluray_compat=0 / constrained_intra=0 / bframes=3 / b_pyramid=2 / b_adapt=2 / b_bias=0 / direct=3 / weightb=1 / open_gop=0 / weightp=2 / keyint=250 / keyint_min=23 / scenecut=40 / intra_refresh=0 / rc_lookahead=60 / rc=2pass / mbtree=1 / bitrate=2050 / ratetol=1.0 / qcomp=0.60 / qpmin=0 / qpmax=69 / qpstep=4 / cplxblur=20.0 / qblur=0.5 / vbv_maxrate=31250 / vbv_bufsize=31250 / nal_hrd=none / filler=0 / ip_ratio=1.40 / aq=1:1.00
Default                                  : Yes
Forced                                   : No

Audio #1
ID                                       : 2
Format                                   : AC-3
Format/Info                              : Audio Coding 3
Commercial name                          : Dolby Digital
Codec ID                                 : A_AC3
Duration                                 : 1 h 34 min
Bit rate mode                            : Constant
Bit rate                                 : 448 kb/s
Channel(s)                               : 6 channels
Channel layout                           : L R C LFE Ls Rs
Sampling rate                            : 48.0 kHz
Frame rate                               : 31.250 FPS (1536 SPF)
Compression mode                         : Lossy
Stream size                              : 304 MiB (17%)
Title                                    : Türkçe - Filmbol.org
Language                                 : Turkish
Service kind                             : Complete Main
Default                                  : Yes
Forced                                   : No

Audio #2
ID                                       : 3
Format                                   : AAC LC
Format/Info                              : Advanced Audio Codec Low Complexity
Codec ID                                 : A_AAC-2
Duration                                 : 1 h 34 min
Bit rate                                 : 119 kb/s
Channel(s)                               : 2 channels
Channel layout                           : L R
Sampling rate                            : 48.0 kHz
Frame rate                               : 46.875 FPS (1024 SPF)
Compression mode                         : Lossy
Stream size                              : 80.7 MiB (5%)
Title                                    : Orjinal Dil - Filmbol.org
Default                                  : No
Forced                                   : No

Text
ID                                       : 4
Format                                   : PGS
Muxing mode                              : zlib
Codec ID                                 : S_HDMV/PGS
Codec ID/Info                            : Picture based subtitle format used on BDs/HD-DVDs
Duration                                 : 1 h 34 min
Bit rate                                 : 31.2 kb/s
Count of elements                        : 2528
Stream size                              : 21.0 MiB (1%)
Title                                    : Türkçe - Filmbol.org
Language                                 : Turkish
Default                                  : No
Forced                                   : No

Film Detayları


 Kung Fu Panda 3

 Kung Fu Panda 3

 Kung Fu Panda 3


Film Fragmanı


Film Detayları

Uptobox ile indir

1Fichier ile indir

1Fichier'den İndiremiyor musun? Tıklayın!


Mega linki şuan da gizli. Kullanıma açmak için konuya yorum yapın ve ardından sayfayı yenileyin.

Mega


Bunun için üzgünüz ancak, bu linke sadece premium üyeler erişebilir.

Filmbol Cloud





Şuan Offine!
Şuan Offine!
back-ir Süper Üye
***
Super Üye

  • Konular0
  • Mesajlar29
  • Rep puanı 1
Hafta içi bir TV kanalında 2.bölümü vardı, 3. bölüm final olmuş,
Şuan Offine!
Şuan Offine!
Kookkie Yeni Üye
*
Üye

  • Konular0
  • Mesajlar1
  • Rep puanı 0
Kung-fu çok iyi bir animasyon
Şuan Offine!
Şuan Offine!
zubizeratta Uzman Üye
**
Uzman Üye

  • Konular0
  • Mesajlar8
  • Rep puanı 1
teşekkurler
Şuan Offine!
Şuan Offine!
concovanni Uzman Üye
**
Uzman Üye

  • Konular0
  • Mesajlar12
  • Rep puanı 1
teşekkürler
Şuan Offine!
Şuan Offine!
isimsizcapon Yeni Üye
*
Üye

  • Konular0
  • Mesajlar5
  • Rep puanı 0
esadasdadadsasşd
Şuan Offine!
Şuan Offine!
Cisto07 Yeni Üye
*
Üye

  • Konular0
  • Mesajlar1
  • Rep puanı 0
eywallah
Şuan Offine!
Şuan Offine!
kubikanber Uzman Üye
**
Uzman Üye

  • Konular0
  • Mesajlar21
  • Rep puanı 0
Smile Wink Cool Big Grin
Şuan Offine!
Şuan Offine!
Ahter Yeni Üye
*
Üye

  • Konular0
  • Mesajlar1
  • Rep puanı 0
Gayet iyi
Şuan Offine!
Şuan Offine!
gulumsegeceye Yeni Üye
*
Üye

  • Konular0
  • Mesajlar3
  • Rep puanı 0
süperrrr


Hızlı Menü: